<?xml version="1.0" standalone="no"?>
<!DOCTYPE svg PUBLIC "-//W3C//DTD SVG 1.1//EN" "http://www.w3.org/Graphics/SVG/1.1/DTD/svg11.dtd" >
<svg xmlns="http://www.w3.org/2000/svg">
<metadata>Generated by IcoMoon</metadata>
<defs>
<font id="ic-vimpay" horiz-adv-x="1024">
<font-face units-per-em="1024" ascent="960" descent="-64" />
<missing-glyph horiz-adv-x="1024" />
<glyph unicode="&#x20;" horiz-adv-x="409.6" d="" />
<glyph unicode="&#xe900;" glyph-name="ic_add" d="M512.337 960.5c282.901 0 510.762-229.455 510.762-512.154s-227.892-512.154-510.761-512.154-510.762 229.422-510.762 512.154 227.861 512.154 510.762 512.154zM512.337 878.545c-235.751 0-428.28-192.588-428.28-430.231s192.53-430.231 428.28-430.231 428.28 192.588 428.28 430.231-192.53 430.231-428.28 430.231zM512.337 677.769c19.646 0 35.363-16.378 35.363-36.867v0-151.61h145.38c19.646 0 35.363-16.378 35.363-36.867s-15.717-36.867-35.363-36.867v0h-145.38v-151.61c0-20.489-15.717-36.867-35.363-36.867s-35.363 16.378-35.363 36.867v0 151.61h-145.38c-19.646 0-35.363 16.378-35.363 36.867s15.717 36.867 35.363 36.867v0h145.38v151.61c0 16.378 15.717 36.867 35.363 36.867z" />
<glyph unicode="&#xe901;" glyph-name="ic_address" horiz-adv-x="1565" d="M1409.105 99.976h-1250.179v593.882l586.006-390.687c23.43-15.604 54.687-15.604 70.34 0l586.006 390.687v-593.833h7.826v-0.049zM1276.3 803.232l-492.284-328.173-492.235 328.173h984.52zM1495.099 959.517h-1422.117c-39.083 0-70.34-31.257-70.34-70.34v-882.972c0-39.083 31.257-70.34 70.34-70.34h1422.117c39.083 0 70.34 31.257 70.34 70.34v882.972c-0.049 39.083-31.306 70.34-70.34 70.34v0z" />
<glyph unicode="&#xe902;" glyph-name="ic_adsfree" horiz-adv-x="1179" d="M1088.37 46.53c7.62-7.578 11.367-17.177 13.009-26.986 44.794 18.314 76.538 62.308 76.538 113.628v674.906c0 67.739-55.109 122.848-122.848 122.848-57.677 0-105.882-40.079-119.059-93.799l-486.677-152.023 79.948-79.906 402.013 125.584v-526.082l157.075-158.17zM1077.845 133.172c0-12.504-10.23-22.734-22.734-22.734s-22.734 10.23-22.734 22.734v674.906c0 12.504 10.23 22.734 22.734 22.734s22.734-10.23 22.734-22.734v-674.906zM501.243 365.396l-252.6 94.43v57.677l76.538 23.913-79.99 79.906-18.735-5.852c-22.229 31.87-59.024 52.836-100.703 52.836-67.739 0-122.848-55.109-122.848-122.848v-120.49c0-67.739 55.109-122.848 122.848-122.848 43.868 0 82.095 23.281 103.861 57.93l71.696-26.776-13.767-36.417c-8.378-21.934-7.62-45.763 2.063-67.192 9.641-21.429 27.028-37.806 48.92-46.057l142.761-54.056c10.062-3.789 20.587-5.641 31.028-5.641 12.251 0 24.544 2.61 36.038 7.746 21.429 9.599 37.806 27.028 46.057 48.92l14.314 37.848 63.276-23.618-170.758 170.59zM125.753 402.233c-12.504 0-22.734 10.23-22.734 22.734v120.49c0 12.504 10.23 22.734 22.734 22.734 12.125 0 21.934-9.641 22.524-21.682v-121.374c0-0.253 0.084-0.463 0.084-0.716-0.295-12.209-10.315-22.187-22.608-22.187zM127.732 940.609c-10.357 10.357-24.123 14.819-37.722 14.23-11.999-0.547-23.871-5.052-33.049-14.23-5.473-5.473-9.009-11.956-11.409-18.819-6.189-17.64-2.652-37.89 11.409-51.994l919.633-918.918c9.767-9.767 22.566-14.651 35.406-14.651 5.389 0 10.693 1.347 15.872 3.115 7.115 2.4 13.851 5.894 19.534 11.577 3.115 3.115 4.841 6.862 6.947 10.483 11.283 19.156 9.515 43.91-6.947 60.329z" />
<glyph unicode="&#xe903;" glyph-name="ic_alias" horiz-adv-x="1283" d="M130.486 62.352h1026.611v600.182h-263.631l-106.791 171.094h-285.631l-106.836-171.094h-263.722v-600.182zM1220.713-64.514h-1153.797c-35.108 0-63.616 28.462-63.616 63.433v727.001c0 35.016 28.508 63.433 63.616 63.433h256.618l88.137 141.119c11.642 18.654 32.037 29.929 54.083 29.929h356.259c22.046 0 42.35-11.275 53.991-29.929l88.182-141.165h256.527c35.108 0.046 63.662-28.325 63.662-63.341v-727.001c0-35.016-28.554-63.479-63.662-63.479v0zM652.752 540.435c-74.066 0-134.336-60.087-134.336-133.924 0-73.791 60.224-133.878 134.336-133.878s134.382 60.087 134.382 133.878c0 73.837-60.362 133.924-134.382 133.924zM652.752 138.755c-148.178 0-268.718 120.082-268.718 267.756s120.54 267.801 268.718 267.801c148.224 0 268.764-120.174 268.764-267.802s-120.54-267.756-268.764-267.756z" />
<glyph unicode="&#xe904;" glyph-name="ic_app_pin" horiz-adv-x="783" d="M294.841 349.92c0 53.536 43.808 97.312 97.312 97.312s97.312-43.808 97.312-97.312c0-34.048-19.456-68.128-48.672-82.72v-87.584c0-29.184-19.456-48.672-48.672-48.672-29.184 0-48.672 19.456-48.672 48.672v87.584c-29.12 14.592-48.608 48.64-48.608 82.72zM246.201 617.568h291.968v97.312c0 82.72-63.264 145.984-145.984 145.984s-145.984-63.264-145.984-145.984v-97.312zM148.857 617.568v97.312c0 136.256 107.040 243.296 243.296 243.296s243.296-107.040 243.296-243.296v-97.312h97.312c29.184 0 48.672-19.456 48.672-48.672v-583.936c0-29.184-19.456-48.672-48.672-48.672h-681.216c-29.184 0-48.672 19.456-48.672 48.672v583.936c0 29.184 19.456 48.672 48.672 48.672h97.312zM684.153 520.224h-583.936v-486.624h583.936v486.624z" />
<glyph unicode="&#xe905;" glyph-name="ic_appicon" horiz-adv-x="1027" d="M711.24-65.509h-394.819c-102.541 0-143.571 10.241-184.6 35.893-41.029 20.515-76.922 56.407-97.437 97.437s-35.893 82.027-35.893 184.6v394.787c0 102.541 10.241 143.571 35.893 184.6 25.651 35.893 56.407 71.785 97.437 92.3s82.027 35.893 184.6 35.893h394.819c102.541 0 143.571-10.241 184.6-35.893 41.029-20.515 76.922-56.407 97.437-97.437s35.893-82.027 35.893-184.6v-394.819c0-102.541-10.241-143.571-35.893-184.6-20.515-41.029-56.407-76.922-97.437-97.437-41.029-20.483-82.059-30.724-184.6-30.724zM316.42 857.427c-87.163 0-112.815-10.241-133.297-20.515-25.651-15.378-46.134-35.893-56.407-61.512s-20.515-46.134-20.515-133.297v-394.819c0-87.163 10.241-112.815 20.515-133.297 15.378-25.651 30.756-41.029 56.407-56.407 25.651-10.241 46.134-20.515 133.297-20.515h394.819c87.163 0 112.815 10.241 133.297 20.515 25.651 15.378 41.029 30.756 56.407 56.407 10.241 25.651 20.515 46.134 20.515 133.297v394.787c0 87.163-10.241 112.815-20.515 133.297-10.241 25.651-30.756 46.134-56.407 56.407-25.651 10.241-46.134 20.515-133.297 20.515l-394.819 5.137z" />
<glyph unicode="&#xe906;" glyph-name="ic_archive" horiz-adv-x="1116" d="M967.482 696.682c35.107 0 58.511-23.405 58.511-58.511v-643.659c0-35.107-23.405-58.511-58.511-58.511h-819.193c-35.107 0-58.511 23.405-58.511 58.511v643.659c0 35.107 23.405 58.511 58.511 58.511 0 0 819.193 0 819.193 0zM908.971 579.659h-702.17v-526.637h702.17v526.637zM674.925 491.875c35.107 0 58.511-23.405 58.511-58.511s-23.405-58.511-58.511-58.511h-234.045c-35.107 0-58.511 23.405-58.511 58.511s23.405 58.511 58.511 58.511c-0.035 0 234.045 0 234.045 0zM1055.266 960c35.107 0 58.511-23.405 58.511-58.511v-58.511c0-35.107-23.405-58.511-58.511-58.511h-994.727c-35.107 0-58.511 23.405-58.511 58.511v58.511c0 35.107 23.405 58.511 58.511 58.511 0 0 994.727 0 994.727 0z" />
<glyph unicode="&#xe907;" glyph-name="ic_aufladekonto" horiz-adv-x="1022" d="M510.391 64.658c35.109 0 63.744-28.855 63.744-64.11 0-35.365-28.709-64.11-63.744-64.11h-446.135c-35.109 0-63.744 28.782-63.744 64.11 0 35.291 28.709 64.11 63.744 64.11h446.135zM191.817 527.104c35.109 0 63.744-28.782 63.744-64.11v-283.502c0-32.805-24.759-59.977-56.357-63.744l-7.387-0.439c-35.109 0-63.744 28.782-63.744 64.11v283.502c0 35.364 28.709 64.183 63.744 64.183zM510.647 527.104c35.109 0 63.744-28.782 63.744-64.11v-283.502c0-32.805-24.759-59.977-56.357-63.744l-7.387-0.439c-35.109 0-63.744 28.782-63.744 64.11v283.502c0 35.364 28.672 64.183 63.744 64.183zM829.513 527.104c35.109 0 63.744-28.782 63.744-64.11v-28.27c0-32.805-24.759-59.977-56.357-63.744l-7.387-0.439c-35.109 0-63.744 28.782-63.744 64.11v28.27c0 35.365 28.635 64.183 63.744 64.183zM534.967 952.649l7.461-3.584 446.281-250.88c55.259-31.086 36.242-113.701-23.881-120.027l-7.387-0.366h-892.489c-63.378 0-86.857 81.408-37.449 116.443l6.254 3.95 446.281 250.88c16.969 9.582 37.12 10.715 54.93 3.584zM1002.423 154.149l-145.591 128.512c-2.743 2.414-5.998 3.621-9.070 5.413-2.633 1.536-4.864 3.511-7.717 4.608-6.619 2.633-13.531 4.096-20.553 4.133-0.11 0-0.256 0.073-0.439 0.073-0.073 0-0.11-0.073-0.183-0.073-7.095 0-14.117-1.536-20.736-4.206-2.816-1.134-5.12-3.072-7.643-4.608-2.999-1.792-6.327-2.999-8.997-5.413l-145.847-128.695c-23.625-20.809-25.856-56.795-5.047-80.347 11.227-12.763 26.99-19.273 42.679-19.273 13.385 0 26.88 4.645 37.632 14.226l51.31 45.239v-119.223c0-31.451 25.454-56.905 56.905-56.905s56.905 25.454 56.905 56.905v119.186l50.981-45.056c23.552-20.809 59.538-18.578 80.384 4.974 20.809 23.771 18.578 59.758-4.974 80.53z" />
<glyph unicode="&#xe908;" glyph-name="ic_aufladekonto_wechseln" d="M1007.606 291.723c-9.032 3.576-19.318 1.659-26.138-5.198l-20.645-20.719c-65.29 61.972-177.032 60.94-241.18-3.060-24.221-24.295-40.553-54.673-47.189-88-2.544-13.051 0.774-26.396 9.143-36.645 8.258-9.991 20.35-15.742 33.327-15.742 20.461 0 38.378 14.71 42.47 35.171 12.166 60.424 91.576 91.65 141.788 46.636l-21.567-21.493c-6.857-6.857-8.959-17.217-5.235-26.138 3.76-8.959 12.461-14.783 22.194-14.783h103.926c13.235 0 24 10.728 24 24v103.853c-0.074 9.659-5.935 18.433-14.894 22.12zM976.343 125.972c-20.793 0-38.304-14.452-42.47-35.097-12.092-60.498-91.318-91.834-141.788-46.673l21.604 21.567c6.783 6.857 8.885 17.217 5.198 26.138-3.76 8.959-12.461 14.783-22.194 14.783h-103.926c-13.235 0-24-10.728-24-24v-103.926c0-9.659 5.899-18.433 14.783-22.194 9.143-3.723 19.318-1.659 26.138 5.235l20.719 20.719c31.926-30.452 74.249-47.521 118.82-47.521 46.23 0 89.585 17.917 122.212 50.581 24.221 24.295 40.627 54.747 47.189 88 2.544 12.977-0.774 26.359-9.143 36.535-7.963 10.175-20.166 15.853-33.143 15.853zM766.574 463.705v-28.313c0-35.429 28.793-64.258 63.889-64.258l7.41 0.442c31.668 3.723 56.479 30.968 56.479 63.889v28.313c0 35.429-28.793 64.258-63.889 64.258-35.171 0-63.889-28.903-63.889-64.332zM64.159 578.802l901.862 0.369c60.24 6.341 79.226 89.143 23.926 120.295l-447.263 251.502-7.484 3.576c-17.77 7.152-38.046 5.935-55.078-3.576l-447.3-251.465-6.267-3.982c-49.401-35.023-25.88-116.719 37.604-116.719zM510.869 528.037c-35.171 0-63.889-28.829-63.889-64.258v-284.129c0-35.429 28.793-64.258 63.889-64.258l7.41 0.442c31.668 3.723 56.479 30.968 56.479 63.889v284.129c0.074 35.281-28.719 64.184-63.889 64.184zM510.611 64.516h-447.152c-35.171 0-63.889-28.903-63.889-64.258 0-35.429 28.793-64.258 63.889-64.258h447.078c35.17 0 63.889 28.829 63.889 64.258 0.074 35.355-28.682 64.258-63.816 64.258zM127.422 463.705v-284.129c0-35.429 28.793-64.258 63.889-64.258l7.41 0.442c31.668 3.723 56.479 30.968 56.479 63.889v284.129c0 35.429-28.793 64.258-63.889 64.258s-63.889-28.903-63.889-64.332z" />
<glyph unicode="&#xe909;" glyph-name="ic_automatic_lock" horiz-adv-x="941" d="M506.464 943.872c21.024-18.048 22.144-46.656 3.392-65.856 241.76-19.776 431.808-222.304 431.808-469.184 0-260-210.848-470.848-470.848-470.848s-470.816 210.848-470.816 470.848c0 28.864 23.424 52.32 52.32 52.32s52.32-23.424 52.32-52.32c0-202.272 163.968-366.208 366.208-366.208s366.208 163.968 366.208 366.208c0 187.808-141.408 342.624-323.584 363.744 14.912-18.976 12.544-44.928-7.008-61.728-22.176-19.040-58.24-19.040-80.416 0l-95.52 81.984c-16.256 13.984-20.608 34.272-13.088 51.648 2.784 6.336 7.104 12.288 13.088 17.408l95.52 81.984c22.176 19.040 58.176 19.040 80.416 0zM470.784 565.792c57.824 0 104.64-46.816 104.64-104.64 0-38.72-21.024-72.512-52.256-90.624l-0.064-92.512c0-28.864-23.424-52.32-52.32-52.32-28.864 0-52.32 23.424-52.32 52.32v92.512c-31.296 18.112-52.32 51.904-52.32 90.624 0 57.76 46.816 104.64 104.64 104.64z" />
<glyph unicode="&#xe90a;" glyph-name="ic_back" horiz-adv-x="600" d="M446.966 930.357c36.007 36.007 89.985 36.007 125.991 0s36.007-89.985 0-125.991v0l-353.991-359.971 353.959-353.959c29.995-29.995 36.007-84.005 6.012-119.98l-6.012-6.012c-36.007-36.007-89.985-36.007-125.991 0v0l-419.929 419.961c-36.007 36.007-36.007 89.985 0 125.991v0l419.961 419.961z" />
<glyph unicode="&#xe90b;" glyph-name="ic_bank" horiz-adv-x="1026" d="M960.958 64.072c35.048 0 63.683-28.795 63.683-64.036 0-35.305-28.667-64.036-63.683-64.036h-891.695c-35.048 0-63.683 28.731-63.683 64.036 0 35.241 28.667 64.036 63.683 64.036h891.695zM196.597 525.985c35.048 0 63.683-28.731 63.683-64.036v-283.176c0-32.772-24.723-59.9-56.276-63.683l-7.407-0.449c-35.048 0-63.683 28.731-63.683 64.036v283.176c0.032 35.337 28.699 64.132 63.683 64.132zM515.078 525.985c35.048 0 63.683-28.731 63.683-64.036v-283.176c0-32.772-24.723-59.9-56.276-63.683l-7.407-0.449c-35.048 0-63.683 28.731-63.683 64.036v283.176c0 35.337 28.699 64.132 63.683 64.132zM833.527 525.985c35.048 0 63.683-28.731 63.683-64.036v-283.176c0-32.772-24.723-59.9-56.276-63.683l-7.407-0.449c-35.048 0-63.683 28.731-63.683 64.036v283.176c0.032 35.337 28.635 64.132 63.683 64.132zM539.352 951.021l7.407-3.559 445.751-250.597c55.186-31.040 36.203-113.578-23.825-119.895l-7.407-0.385h-891.374c-63.299 0-86.739 81.32-37.421 116.304l6.253 3.944 445.751 250.597c16.963 9.588 37.101 10.806 54.865 3.591z" />
<glyph unicode="&#xe90c;" glyph-name="ic_banking" horiz-adv-x="1026" d="M960.875 64.522c35.155 0 63.858-28.886 63.858-64.261 0-35.411-28.776-64.261-63.858-64.261h-894.451c-35.155 0-63.858 28.813-63.858 64.261 0 35.338 28.776 64.261 63.858 64.261h894.451zM194.213 527.841c35.155 0 63.858-28.813 63.858-64.261v-284.025c0-32.845-24.817-60.082-56.453-63.858l-7.405-0.44c-35.155 0-63.858 28.813-63.858 64.261v284.025c0 35.411 28.776 64.298 63.858 64.298zM513.65 527.841c35.155 0 63.858-28.813 63.858-64.261v-284.025c0-32.845-24.817-60.082-56.453-63.858l-7.405-0.44c-35.155 0-63.858 28.813-63.858 64.261v284.025c0 35.411 28.703 64.298 63.858 64.298zM833.086 527.841c35.155 0 63.858-28.813 63.858-64.261v-284.025c0-32.845-24.817-60.082-56.453-63.858l-7.405-0.44c-35.155 0-63.858 28.813-63.858 64.261v284.025c0 35.411 28.703 64.298 63.858 64.298zM537.99 954.171l7.478-3.592 447.079-251.363c55.353-31.123 36.291-113.896-23.901-120.238l-7.405-0.367h-894.121c-63.491 0-86.989 81.564-37.538 116.645l6.268 3.959 447.079 251.363c17.046 9.604 37.244 10.741 55.060 3.592z" />
<glyph unicode="&#xe90d;" glyph-name="ic_bug" horiz-adv-x="1008" d="M783.798 958.653l0.276-4.040c0-91.617-43.934-155.395-111.948-206.487l61.090 0.012c28.121 0 50.918-25.076 50.918-56.010v-55.965l56.010-0.044v112.019c0 30.933 25.076 56.010 56.010 56.010 28.724 0 52.397-21.622 55.633-49.478l0.377-6.532v-168.029c0-28.724-21.622-52.397-49.478-55.633l-6.532-0.377-112.019 0.044v-56.010l168.029-0.044c30.933 0 56.010-25.076 56.010-56.010s-25.076-56.010-56.010-56.010l-168.029 0.044v-56.010l112.019-0.044c30.933 0 56.010-25.076 56.010-56.010v-168.029c0-30.933-25.076-56.010-56.010-56.010s-56.010 25.076-56.010 56.010v112.019l-60.629-0.009c-23.948-143.387-138.154-252.034-275.429-252.034s-251.481 108.648-275.429 252.034l-60.629 0.009v-112.019c0-30.933-25.076-56.010-56.010-56.010-28.724 0-52.397 21.622-55.633 49.478l-0.377 6.532v168.029c0 28.724 21.622 52.397 49.478 55.633l6.532 0.377 112.019 0.044v56.010l-168.029-0.044c-30.933 0-56.010 25.076-56.010 56.010 0 28.724 21.622 52.397 49.478 55.633l6.532 0.377 168.029 0.044v56.010l-112.019-0.044c-30.933 0-56.010 25.076-56.010 56.010v168.029c0 30.933 25.076 56.010 56.010 56.010s56.010-25.076 56.010-56.010v-112.019l56.010 0.044v55.965c0 30.933 22.797 56.010 50.918 56.010l61.090-0.012c-64.644 48.561-107.59 124.448-111.687 210.511 29.701-26.412 68.824-42.47 111.698-42.47v0l9.559 0.005c23.065-65.265 85.307-112.024 158.469-112.024s135.404 46.76 158.469 112.024l9.559-0.005c42.873 0 81.997 16.057 111.684 42.486zM682.298 636.12h-356.424v-392.067c0-108.266 79.788-196.034 178.212-196.034s178.212 87.767 178.212 196.034v392.067z" />
<glyph unicode="&#xe90e;" glyph-name="ic_business" horiz-adv-x="1080" d="M1078.616 467.787l-53.83 276.175c-5.171 26.703-27.899 45.843-54.216 45.843h-861.48c-26.317 0-48.968-19.217-54.216-45.843l-53.83-276.175c-0.695-3.782-1.042-7.525-1.042-11.268v-110.516c0-31.604 24.774-57.11 55.297-57.11h29.983v-289.874c0-31.604 24.774-57.11 55.297-57.11h483.664c30.562 0 55.297 25.507 55.297 57.11v289.874h178.547v-295.392c0-31.604 24.735-57.11 55.297-57.11h36.466c30.562 0 55.297 25.507 55.297 57.11v295.392h19.14c30.523 0 55.297 25.507 55.297 57.11v110.516c0.116 3.743-0.27 7.486-0.965 11.268v0zM110.632 403.152v47.695l43.798 224.737h770.914l43.759-224.737v-47.695h-858.471zM568.944 273.302v-217.174h-372.993v217.174h372.993zM952.857 959.207c32.8 0 59.31-24.735 59.31-55.22s-26.549-55.22-59.31-55.22v0h-831.034c-32.8 0-59.31 24.735-59.31 55.22s26.549 55.22 59.31 55.22v0c0 0 831.034 0 831.034 0z" />
<glyph unicode="&#xe90f;" glyph-name="ic_cake" horiz-adv-x="927" d="M821.032 30.848h-719.072v200.32h719.072v-200.32zM235.496 482.816h452v-143.808h-452v143.808zM821.032 339.008h-30.816v143.808c0 56.512-46.24 102.72-102.72 102.72h-159.232v77.056c0 15.424-15.424 30.816-30.816 30.816h-77.056c-15.424 0-30.816-15.424-30.816-30.816v-77.056h-159.232c-56.512 0-102.72-46.24-102.72-102.72v-143.808h-25.664c-56.512 0-102.72-46.24-102.72-102.72v-200.32c0-56.512 46.24-102.72 102.72-102.72h719.072c56.512 0 102.72 46.24 102.72 102.72v200.32c0 56.512-46.24 102.72-102.72 102.72v0zM446.088 950.24c5.152 10.272 20.544 10.272 25.696 0 20.544-41.088 41.088-71.904 61.632-107.872 15.424-35.968 5.152-71.904-25.696-97.6-30.816-20.544-66.784-20.544-97.6 0s-41.088 61.632-25.696 92.448c20.544 41.088 41.12 71.936 61.664 113.024z" />
<glyph unicode="&#xe910;" glyph-name="ic_camera" horiz-adv-x="1273" d="M127.223 64.378h1016.468v597.194h-260.454l-108.002 171.514h-285.883l-101.635-177.881h-260.494v-590.827zM1207.203-62.686h-1143.492c-31.756 0-63.512 25.429-63.512 63.512v717.891c0 31.756 25.429 63.512 63.512 63.512h254.127l88.94 139.758c12.694 19.062 31.756 31.756 50.817 31.756h355.762c19.062 0 44.49-12.694 50.817-31.756l88.94-139.758h254.127c31.756 0 63.512-25.429 63.512-63.512v-717.891c0-38.083-25.429-63.512-63.552-63.512v0zM648.171 534.509c-76.246 0-133.431-57.185-133.431-133.431s57.185-133.431 133.431-133.431 133.431 57.185 133.431 133.431-63.552 133.431-133.431 133.431zM648.171 140.624c-146.125 0-266.821 120.696-266.821 266.821s120.696 266.821 266.821 266.821 266.821-120.696 266.821-266.821-120.696-266.821-266.821-266.821z" />
<glyph unicode="&#xe911;" glyph-name="ic_card" horiz-adv-x="1472" d="M1407.549 704.869c38.386 0 63.945-25.606 63.945-63.945v-639.593c0-38.386-25.606-63.945-63.945-63.945h-1023.312c-38.386 0-63.945 25.606-63.945 63.945v639.593c0 38.386 25.606 63.945 63.945 63.945h1023.312zM1343.603 353.123h-895.421v-287.801h895.421v287.801zM1087.775 960.697c38.386 0 63.945-25.606 63.945-63.945v-127.937h-127.937v63.992h-895.421v-511.656h127.937v-127.937h-191.883c-38.386 0-63.945 25.606-63.945 63.945v639.593c0 38.386 25.606 63.945 63.945 63.945 0 0 1023.358 0 1023.358 0zM1343.603 576.978h-895.421v-95.918h895.421v95.918z" />
<glyph unicode="&#xe912;" glyph-name="ic_change_password" horiz-adv-x="1945" d="M514.125 957.723c225.063 0 419.371-153.405 490.968-357.985h838.804c61.386 0 102.29-40.904 102.29-102.29v-102.29c0-61.386-40.904-102.29-102.29-102.29v-204.58c0-30.693-20.482-51.115-51.115-51.115h-102.29c-30.693 0-51.115 20.482-51.115 51.115v51.115h-51.236c-30.693 0-51.115 20.482-51.115 51.115v102.29h-531.933c-61.386-204.58-255.695-357.985-490.968-357.985-286.388 0-511.451 225.063-511.451 511.451s235.213 511.451 511.451 511.451zM514.125 753.143c-173.887 0-306.87-132.983-306.87-306.87s132.983-306.87 306.87-306.87 306.87 132.983 306.87 306.87-132.983 306.87-306.87 306.87z" />
<glyph unicode="&#xe913;" glyph-name="ic_check" horiz-adv-x="1471" d="M31.485 409.396c-36.495 36.495-36.495 91.285 0 127.78s91.285 36.495 127.78 0l383.34-383.34 775.827 775.827c36.495 36.495 91.285 36.495 127.78 0s36.495-91.285 0-127.78l-839.717-839.717c-36.495-36.496-82.138-36.496-118.679-9.147l-456.331 456.377z" />
<glyph unicode="&#xe914;" glyph-name="ic_city" horiz-adv-x="620" d="M515.968 39.328l-135.584 0.736v142.112c0 17.984-14.56 32.544-32.544 32.544h-72.672c-17.952 0-32.544-14.56-32.544-32.544v-141.376l-138.272 0.8v811.616h411.616v-813.888zM515.968 957.536h-411.616c-57.632 0-104.352-46.688-104.352-104.352v-811.584c0-57.44 46.368-104.032 103.776-104.352l412.192-2.304c27.552 0 54.048 10.912 73.568 30.304 19.712 19.616 30.784 46.208 30.784 74.016v813.952c-0.032 57.632-46.752 104.32-104.352 104.32v0zM241.408 780.448h-37.472c-18.464 0-33.44-14.976-33.44-33.44v-50.656c0-18.464 14.976-33.44 33.44-33.44h37.472c18.464 0 33.44 14.976 33.44 33.44v50.656c0 18.464-14.976 33.44-33.44 33.44zM417.888 779.616h-37.504c-18.4 0-33.376-14.976-33.376-33.44v-50.656c0-18.464 14.976-33.44 33.376-33.44h37.504c18.464 0 33.44 14.976 33.44 33.44v50.656c0 18.464-14.976 33.44-33.44 33.44zM242.112 604.416h-37.472c-18.464 0-33.44-14.976-33.44-33.44v-50.656c0-18.464 14.976-33.44 33.44-33.44h37.472c18.464 0 33.44 14.976 33.44 33.44v50.656c0 18.464-14.944 33.44-33.44 33.44zM416.96 603.776h-37.472c-18.464 0-33.44-14.976-33.44-33.44v-50.656c0-18.464 14.976-33.44 33.44-33.44h37.472c18.464 0 33.44 14.976 33.44 33.44v50.656c0 18.496-14.976 33.44-33.44 33.44zM241.504 436.416h-37.472c-18.464 0-33.44-14.976-33.44-33.44v-50.592c0-18.528 14.976-33.504 33.44-33.504h37.472c18.464 0 33.44 14.976 33.44 33.504v50.592c0 18.496-14.976 33.44-33.44 33.44zM419.136 436.224h-37.472c-18.464 0-33.44-14.976-33.44-33.44v-50.592c0-18.528 14.976-33.504 33.44-33.504h37.472c18.464 0 33.44 14.976 33.44 33.504v50.592c0 18.464-14.976 33.44-33.44 33.44z" />
<glyph unicode="&#xe915;" glyph-name="ic_close" d="M512.64 957.952c-280.48 0-509.984-229.504-509.984-509.984s229.504-510.016 509.984-510.016 509.984 229.504 509.984 509.984-229.504 510.016-509.984 510.016zM104.64 447.936c0 224.384 183.584 408 408 408 91.808 0 173.408-30.592 244.8-81.6l-560.992-560.992c-5.088-5.088-5.088-10.176-10.208-15.296-51.008 71.392-81.6 152.992-81.6 249.888zM512.64 39.968c-96.896 0-188.704 35.712-260.096 91.808 5.088 0 10.208 5.088 15.296 10.208l560.992 560.96c56.096-71.392 91.808-158.112 91.808-255.008 0-229.472-183.616-407.968-408-407.968z" />
<glyph unicode="&#xe916;" glyph-name="ic_close_2" horiz-adv-x="1019" d="M997.824 61.12c27.584-27.584 27.584-68.96 0-96.576-27.584-27.584-68.96-27.584-96.576 0l-393.152 386.24-393.12-393.12c-27.584-27.584-68.96-27.584-96.576 0-27.584 27.584-27.584 68.96 0 96.576l393.152 393.12-393.152 393.152c-27.584 27.584-27.584 68.96 0 96.576s68.96 27.584 96.576 0l393.152-393.152 386.24 393.152c27.584 27.584 68.96 27.584 96.576 0 27.584-27.584 27.584-68.96 0-96.576l-393.152-393.152 400.032-386.24z" />
<glyph unicode="&#xe917;" glyph-name="ic_close_2_filled" d="M511.968 514.4l-148.576 148.576c-18.56 18.56-46.432 18.56-64.992 0s-18.56-46.432 0-64.992l148.576-148.576-148.576-148.576c-18.56-18.56-18.56-46.432 0-64.992s46.432-18.56 64.992 0l148.576 148.576 148.576-148.576c18.56-18.56 46.432-18.56 64.992 0s18.56 46.432 0 64.992l-148.576 148.576 148.576 148.576c18.56 18.56 18.56 46.432 0 64.992s-46.432 18.56-64.992 0l-148.576-148.576zM874.080 811.52c199.616-199.616 199.616-524.608 0-724.224-125.344-125.344-301.76-171.776-459.616-139.264-97.504 18.56-185.696 64.992-259.968 139.264s-120.704 167.136-139.264 259.968c-32.512 162.496 13.92 334.272 139.264 459.616 194.976 204.288 519.968 204.288 719.584 4.64z" />
<glyph unicode="&#xe918;" glyph-name="ic_cloud" horiz-adv-x="1393" d="M746.413 960h-7.312c-248.688-14.624-373.032-160.903-424.215-285.247-65.806-14.624-153.591-43.871-219.441-109.72s-95.097-153.591-95.097-248.688c0-270.624 219.441-373.032 365.721-380.344 0 0 0 0 7.312 0 21.935 0 599.742 0 643.656 0 58.494 0 109.72 7.312 117.032 7.312h7.312c87.785 21.935 256 117.032 248.688 329.118-7.312 131.656-87.785 234.065-190.15 285.247-14.624 80.473-36.559 124.344-43.871 146.28-95.097 190.237-277.979 256.044-409.635 256.044zM746.413 813.721c21.935 0 197.462-7.312 277.935-175.527 0 0 36.559-58.494 36.559-182.838 0 0 182.838-29.247 182.838-182.838 7.312-146.28-138.968-182.838-138.968-182.838s-43.871-7.312-95.097-7.312c-51.183 0-643.656 0-643.656 0s-219.441 7.312-226.753 234.065c0 219.441 248.688 219.441 277.935 219.441v0c7.399 7.225 36.646 263.225 329.205 277.848v0z" />
<glyph unicode="&#xe919;" glyph-name="ic_color_palette" horiz-adv-x="1034" d="M519.575 960c-83.113 0-161.477-18.315-232.896-54.558-199.916-101.234-254.668-283.578-264.293-322.501-13.728-45.287-80.367-308.482 154.435-521.545 18.218-17.088 138.833-123.813 305.414-123.813 26.875 0 53.782 2.875 79.915 8.495 54.913 11.887 89.961 66.897 79.107 121.649-6.137 31.171-28.781 56.754-32.722 89.024-0.581 4.748-0.775 9.658 0.711 14.213 3.65 11.080 16.377 16.732 28.038 17.701 15.182 1.292 31.333 0.42 46.579 0.161 8.754-0.194 17.508-0.355 26.197-0.355 26.972 0 62.666 1.454 100.2 12.339 65.411 18.993 123.296 59.532 163.286 114.381 43.898 56.302 96.227 190.613 23.936 352.025-78.17 174.494-241.068 242.845-271.4 254.248-19.187 7.978-99.845 38.536-206.505 38.536zM519.575 857.086c97.358 0 168.519-31.3 168.519-31.3s148.136-50.585 215.421-200.627c67.252-150.107-12.081-247.82-12.081-247.82-26.875-37.502-65.605-64.83-109.858-77.718-23.58-6.848-47.451-8.237-71.516-8.237-16.119 0-32.366 0.614-48.582 0.614-4.232 0-8.398 0-12.598-0.097-5.136-0.161-10.304-0.42-15.505-0.808-22.482-1.744-44.835-6.493-64.313-17.604-23.774-13.599-43.478-36.727-55.204-61.438-9.723-20.318-10.433-44.35-7.656-66.38 3.036-23.774 10.337-46.967 19.704-69.061 0.872-2.003 12.21-29.912 14.503-29.912h0.065c-19.93-4.264-39.376-6.17-58.208-6.17-134.472 0-235.577 96.421-235.577 96.421-205.73 186.058-124.943 418.632-124.943 418.632s33.691 168.002 211.448 258.059c65.088 33.013 130.079 43.446 186.381 43.446zM801.57 446.078c-42.703 0-77.201 34.466-77.201 77.201s34.466 77.201 77.201 77.201 77.201-34.466 77.201-77.201-34.498-77.201-77.201-77.201zM647.199 651.938c-42.703 0-77.201 34.466-77.201 77.201s34.466 77.201 77.201 77.201 77.201-34.466 77.201-77.201-34.498-77.201-77.201-77.201zM389.883 651.938c-42.703 0-77.201 34.466-77.201 77.201s34.466 77.201 77.201 77.201 77.201-34.466 77.201-77.201-34.466-77.201-77.201-77.201zM235.513 446.078c-42.703 0-77.201 34.466-77.201 77.201s34.466 77.201 77.201 77.201 77.201-34.466 77.201-77.201-34.466-77.201-77.201-77.201z" />
<glyph unicode="&#xe91a;" glyph-name="ic_comfort" horiz-adv-x="1111" d="M1107.584 421.945c-8.335 74.614-68.185 135.933-142.362 145.855-1.826 0.278-3.572 0-5.398 0.159l13.891 129.662c11.708 66.835-8.533 134.147-55.564 184.71-45.84 49.412-112.437 77.67-182.606 77.67h-360.609c-70.169 0-136.726-28.338-182.646-77.67-47.031-50.603-67.351-117.517-56.159-179.907l12.264-134.623c-0.278-0.040-0.476 0-0.714 0-74.257-9.922-134.107-71.28-142.402-145.894-5.715-51.158 10.795-100.848 45.205-136.369 52.23-53.976 81.044-120.375 81.044-186.972v-19.13c0-47.467 38.141-86.005 85.33-87.076l10.636-17.463c15.042-24.726 43.34-38.895 77.67-38.895 34.37 0 62.708 14.208 77.67 38.974l10.359 17.145h326.477l10.478-17.225c15.042-24.726 43.34-38.895 77.67-38.895 34.37 0 62.708 14.208 77.67 38.974l10.795 17.82c47.507 3.532 85.132 42.824 85.132 91.164v14.566c0 66.597 28.814 132.996 81.083 187.012 34.172 35.442 50.682 85.092 45.086 136.409zM255.554 823.551c29.608 31.87 73.146 50.126 119.422 50.126h360.609c46.237 0 89.775-18.257 119.383-50.126 28.853-31.036 40.839-70.447 33.338-113.866l-16.868-157.206c-32.783-15.677-60.287-41.395-76.995-74.178-3.135-6.191-5.199-12.7-7.501-19.13-6.033 0.833-11.946 1.945-18.217 1.945h-413.236c-9.922 0-19.646-1.111-29.012-3.215-2.461 7.025-4.802 14.129-8.215 20.836-10.16 19.765-23.932 37.029-40.879 51.396-5.437 4.524-11.073 8.533-16.828 12.303-3.016 1.945-6.072 3.85-9.287 5.675-4.882 2.739-9.962 5.040-15.082 7.263l-14.526 158.357c-6.906 39.172 5.477 79.258 33.894 109.818zM299.369 309.706c0 35.878 25.162 65.049 56.080 65.049h413.196c30.917 0 56.080-29.171 56.080-65.049v-22.622c0-13.454-9.446-24.448-21.035-24.448h-483.246c-11.629 0-21.035 10.954-21.035 24.448v22.622h-0.040zM1000.346 345.584c-67.907-70.209-105.333-157.88-105.333-247.060v-14.526c0-3.016-2.5-5.477-5.517-5.477l-671.647 0.953v19.13c0 89.1-37.426 176.891-105.333 247.020-16.431 16.987-24.21 41.316-21.392 66.796 3.969 35.72 32.544 65.049 67.867 69.812 12.105 1.508 23.575 0.794 36.632-3.532l4.921-1.746c2.897-1.191 5.794-2.619 8.414-4.088l4.604-2.858c2.778-1.826 5.517-3.651 8.136-5.874 8.057-6.787 14.883-15.359 19.685-24.646 4.604-9.128 7.422-18.971 8.335-29.25-22.543-26.829-36.712-61.795-36.712-100.491v-22.622c0-61.080 48.182-110.81 107.397-110.81h483.285c59.255 0 107.397 49.69 107.397 110.81v22.622c0 43.895-17.979 83.187-46.158 110.889 1.429 6.39 3.413 12.621 6.43 18.574 9.843 19.368 27.345 34.053 50.404 41.077 10.517 2.739 21.313 3.334 31.989 1.984 35.402-4.763 63.978-34.172 67.947-69.772 2.818-25.639-4.961-49.928-21.352-66.915z" />
<glyph unicode="&#xe91b;" glyph-name="ic_cover_up_active" horiz-adv-x="843" d="M453.536 949.472l342.464-152.192c28.544-12.704 46.944-40.992 46.944-72.224v-229.6c0-251.872-168.896-487.968-399.296-556.032-14.368-4.224-29.984-4.224-44.352 0-230.4 68.064-399.296 304.16-399.296 556.032v229.6c0 31.232 18.4 59.52 46.88 72.224l342.464 152.192c20.416 9.056 43.744 9.056 64.192 0z" />
<glyph unicode="&#xe91c;" glyph-name="ic_cover_up_inactive" horiz-adv-x="842" d="M454.24 951.2l342.976-152.448c28.608-12.672 47.008-41.056 47.008-72.288v-230.016c0-252.288-169.152-488.704-399.904-556.832-14.4-4.288-30.016-4.288-44.416 0-230.752 68.128-399.904 304.576-399.904 556.832v230.016c0 31.232 18.4 59.616 46.976 72.288l342.976 152.448c20.448 9.088 43.84 9.088 64.288 0v0zM422.176 852.48l-316.608-142.176v-214.752c0-206.464 134.592-397.184 316.608-453.568 181.888 56.416 316.608 247.104 316.608 453.568v214.752l-316.608 142.176z" />
<glyph unicode="&#xe91d;" glyph-name="ic_create_new" horiz-adv-x="953" d="M614.195 820.961l-79.652-98.315h-436.228v-688.3h688.3v491.734l98.315 121.434v-662.358c0-27.128-22.029-49.157-49.157-49.157h-786.614c-27.128 0-49.157 22.029-49.157 49.157v786.646c0 27.128 22.029 49.157 49.157 49.157h565.037zM483.269 298.892c-15.488-19.111-131.022-83.693-140.546-75.965s29.597 134.229 45.085 153.308c15.488 19.047 110.949-58.296 95.461-77.344zM778.149 819.23l57.334-46.4c10.582-8.562 12.185-24.050 3.624-34.567l-309.374-382.068c-8.562-10.582-24.050-12.185-34.567-3.624l-57.334 46.4c-10.582 8.562-12.185 24.050-3.624 34.567l309.406 382.068c8.497 10.55 23.985 12.185 34.535 3.624zM886.468 952.978l57.334-46.4c10.582-8.562 12.185-24.050 3.623-34.567l-46.4-57.334c-8.562-10.582-24.050-12.185-34.567-3.623l-57.334 46.368c-10.582 8.562-12.185 24.050-3.624 34.567l46.4 57.334c8.498 10.582 23.986 12.185 34.567 3.656z" />
<glyph unicode="&#xe91e;" glyph-name="ic_deactivate" horiz-adv-x="1582" d="M1419.709 247.179c-0.494-1.236-0.544-2.422-1.038-3.707-47.554-129.563-191.799-196.545-321.708-148.891-15.028 5.536-29.066 12.605-42.364 20.564l368.126 285.919c14.632-48.889 15.028-102.276-3.015-153.884v0zM957.958 221.425c-28.374 58.973-34.109 128.723-9.837 194.815 16.708 45.626 45.775 82.8 81.465 110.581 43.797 34.010 97.827 53.733 154.131 53.733 28.572 0 57.639-4.943 86.112-15.374 27.979-10.331 52.448-25.853 74.050-43.946l-385.922-299.81zM159.421 172.338v354.482h684.051c-11.271-19.476-21.8-39.447-29.758-61.297-36.383-99.113-29.561-203.366 9.788-293.186h-664.080zM159.421 802.507h1102.746v-88.237c-86.112 17.549-173.064 6.476-248.894-29.956h-853.852v118.194zM1419.709 642.691v238.563c0 43.501-35.196 78.746-78.746 78.746h-1260.338c-43.501 0-78.746-35.295-78.746-78.746v-787.711c0-43.55 35.295-78.746 78.746-78.746h869.522c29.561-21.998 61.297-41.375 97.432-54.673 44.638-16.362 90.413-24.123 135.347-24.123 160.607 0 311.674 98.915 370.153 258.138 61.099 166.391 1.088 346.672-133.37 448.553v0z" />
<glyph unicode="&#xe91f;" glyph-name="ic_delete" horiz-adv-x="754" d="M705.248 742.72c26.912 0 48.448-21.536 48.448-48.448 0 0 0 0 0-5.376l-43.072-705.216c0-26.912-21.536-48.448-48.448-48.448h-570.656c-26.912 0-43.072 21.536-48.448 48.448l-43.072 705.184c0 26.912 16.16 53.824 43.072 53.824v0l662.176 0.032zM646.016 635.040h-538.336l26.912-592.16h489.888l21.536 592.16zM376.832 527.36c32.288 0 53.824-21.536 53.824-53.824v-269.184c0-32.288-21.536-53.824-53.824-53.824s-53.824 21.536-53.824 53.824v269.184c0 26.912 26.912 53.824 53.824 53.824zM511.424 958.048c32.288 0 53.824-21.536 53.824-53.824h161.504c16.16 0 26.912-10.752 26.912-26.912v-53.824c0-16.16-10.752-26.912-26.912-26.912h-699.84c-16.16 0-26.912 10.752-26.912 26.912v53.792c0 16.16 10.752 26.912 26.912 26.912h161.504c0 32.288 21.536 53.824 53.824 53.824 0.032 0.032 269.184 0.032 269.184 0.032z" />
<glyph unicode="&#xe920;" glyph-name="ic_delete_filled" d="M511.872 960.128c283.936 0 512-228.064 512-512 0-176.864-93.088-335.136-228.064-428.224-79.136-55.84-176.864-83.776-283.936-83.776s-204.8 32.576-283.936 83.776c-139.648 93.088-228.064 246.688-228.064 428.224 0 283.936 228.064 512 512 512zM744.608 494.656h-465.472c-27.936 0-46.56-18.624-46.56-46.56s18.624-46.56 46.56-46.56v0h465.472c27.936 0 46.56 18.624 46.56 46.56s-18.624 46.56-46.56 46.56v0z" />
<glyph unicode="&#xe921;" glyph-name="ic_disclosure" horiz-adv-x="597" d="M144.976 933.664l426.368-426.368c34.112-34.112 34.112-85.28 0-119.392l-426.368-426.368c-34.112-34.112-85.28-34.112-119.392 0s-34.112 85.28 0 119.392l366.688 366.688-366.688 366.688c-34.112 34.112-34.112 85.28 0 119.392 25.568 34.080 85.28 34.080 119.392-0.032z" />
<glyph unicode="&#xe922;" glyph-name="ic_edit" horiz-adv-x="844" d="M195.99 46.24c-21.376-26.4-180.8-115.456-193.952-104.8s40.832 185.216 62.208 211.52c21.28 26.4 153.024-80.32 131.744-106.72zM602.806 764.32l79.104-64.032c14.592-11.808 16.832-33.184 5.024-47.68l-426.912-527.2c-11.808-14.592-33.184-16.832-47.68-5.024l-79.104 64.032c-14.592 11.808-16.832 33.184-5.024 47.68l426.912 527.232c11.808 14.56 33.184 16.8 47.68 4.992zM752.278 948.864l79.104-64.032c14.592-11.808 16.832-33.184 5.024-47.68l-64.032-79.104c-11.808-14.592-33.184-16.832-47.68-5.024l-79.104 64.032c-14.592 11.808-16.832 33.184-5.024 47.68l64.032 79.104c11.712 14.592 33.088 16.832 47.68 5.024z" />
<glyph unicode="&#xe923;" glyph-name="ic_eigene_farben" horiz-adv-x="1040" d="M520.502 960c-83.236 0-161.719-18.34-233.261-54.649-200.219-101.39-255.053-284.011-264.706-322.993-13.774-45.368-80.488-308.96 154.665-522.358 18.229-17.115 139.036-124 305.878-124 26.916 0 53.869 2.896 80.043 8.502 54.983 11.917 90.104 67.012 79.226 121.846-6.126 31.223-28.81 56.839-32.782 89.176-0.557 4.752-0.78 9.69 0.705 14.219 3.675 11.063 16.372 16.744 28.104 17.746 15.222 1.299 31.371 0.408 46.63 0.148 8.762-0.223 17.523-0.371 26.248-0.371 26.99 0 62.779 1.448 100.351 12.363 65.49 19.008 123.48 59.624 163.539 114.57 43.957 56.394 96.378 190.9 23.983 352.582-78.298 174.75-241.465 243.21-271.797 254.645-19.231 7.982-99.98 38.574-206.827 38.574zM520.502 856.939c97.492 0 168.773-31.334 168.773-31.334s148.391-50.677 215.737-200.961c67.346-150.322-12.103-248.222-12.103-248.222-26.916-37.571-65.712-64.933-110.040-77.815-23.612-6.868-47.521-8.242-71.653-8.242-16.15 0-32.411 0.631-48.635 0.631-4.232 0-8.39 0-12.623-0.111-5.16-0.148-10.321-0.408-15.519-0.817-22.535-1.745-44.885-6.497-64.413-17.635-23.798-13.588-43.548-36.792-55.317-61.554-9.727-20.345-10.469-44.439-7.685-66.492 3.044-23.798 10.358-47.038 19.751-69.165 0.891-2.005 12.214-29.96 14.516-29.96h0.037c-19.936-4.269-39.427-6.2-58.287-6.2-134.655 0-235.934 96.601-235.934 96.601-206.047 186.371-125.151 419.26-125.151 419.26s33.747 168.291 211.765 258.469c65.304 33.079 130.422 43.548 186.779 43.548zM802.991 445.253c-42.769 0-77.296 34.527-77.296 77.296s34.527 77.296 77.296 77.296 77.296-34.527 77.296-77.296-34.527-77.296-77.296-77.296zM648.363 651.412c-42.769 0-77.296 34.527-77.296 77.296s34.527 77.296 77.296 77.296 77.296-34.527 77.296-77.296-34.49-77.296-77.296-77.296zM390.673 651.412c-42.769 0-77.296 34.527-77.296 77.296s34.527 77.296 77.296 77.296 77.296-34.527 77.296-77.296-34.49-77.296-77.296-77.296zM236.082 445.253c-42.769 0-77.296 34.527-77.296 77.296s34.527 77.296 77.296 77.296 77.296-34.527 77.296-77.296-34.527-77.296-77.296-77.296z" />
<glyph unicode="&#xe924;" glyph-name="ic_empfehlen" horiz-adv-x="1166" d="M1000.511 707.422c-74.757 142.738-258.261 163.103-360.232 0-27.178-40.767-88.346-40.767-115.56 0-101.935 156.326-285.475 142.738-360.232 0-88.346-169.915 33.99-414.587 414.587-625.306 387.446 217.494 509.782 455.39 421.436 625.306zM1122.847 768.59c129.149-251.485-40.767-577.726-502.97-822.399-20.401-13.589-40.767-13.589-61.168 0-468.979 244.672-638.895 570.914-509.746 822.399 108.747 210.682 367.008 251.448 536.924 88.346 169.915 169.915 428.213 122.336 536.96-88.346z" />
<glyph unicode="&#xe925;" glyph-name="ic_exchange" horiz-adv-x="1708" d="M1231.362 839.869l121.733-120.719-414.563-410.988-279.702 277.194c-33.195 32.928-87.097 32.928-120.292 0l-509.558-505.929c-33.035-32.875-33.035-86.029 0.107-118.851 33.035-32.768 86.776-32.768 119.811 0l449.786 446.050 279.755-277.354c33.088-32.875 86.937-32.875 120.132-0.107l475.136 470.386 121.946-120.879c26.897-26.631 72.634-7.738 72.634 29.886l42.481 409.28c0 23.268-19.052 42.161-42.481 42.161l-406.718-47.764c-37.998-0.16-56.997-45.736-30.206-72.367z" />
<glyph unicode="&#xe926;" glyph-name="ic_exclamation_mark" horiz-adv-x="195" d="M97.31 130.619c53.087 0 97.31-44.223 97.31-97.31s-44.223-97.31-97.31-97.31-97.31 44.223-97.31 97.31 44.223 97.31 97.31 97.31zM97.31 962.088c53.087 0 97.31-44.223 97.31-97.31v-539.571c0-53.087-44.223-97.31-97.31-97.31s-97.31 44.223-97.31 97.31v539.603c0 53.055 44.223 97.278 97.31 97.278z" />
<glyph unicode="&#xe927;" glyph-name="ic_exclamation_mark_filled" horiz-adv-x="1023" d="M562.596 397.346c0-27.913-23.234-51.147-51.147-51.147s-51.147 23.234-51.147 51.147v283.65c0 27.913 23.234 51.147 51.147 51.147s51.147-23.234 51.147-51.147v-283.65zM511.448 192.756c-27.913 0-51.147 23.234-51.147 51.147s23.234 51.147 51.147 51.147c27.913 0 51.147-23.234 51.147-51.147 0-27.881-23.234-51.147-51.147-51.147v0zM511.448 960c-283.65 0-511.507-227.856-511.507-511.507s227.856-511.507 511.507-511.507 511.507 227.856 511.507 511.507-227.856 511.507-511.507 511.507v0z" />
<glyph unicode="&#xe928;" glyph-name="ic_exclamation_mark_outlined" d="M922.171 446.427c0 224.588-183.754 408.342-408.342 408.342s-408.342-183.754-408.342-408.342 183.754-408.342 408.342-408.342 408.342 183.754 408.342 408.342zM1024.257 446.427c0-280.735-229.692-510.427-510.427-510.427s-510.427 229.692-510.427 510.427 229.692 510.427 510.427 510.427 510.427-229.692 510.427-510.427zM513.83 344.342c-30.626 0-51.043 20.417-51.043 51.043v280.735c0 30.626 20.417 51.043 51.043 51.043s51.043-20.417 51.043-51.043v-280.735c0-25.521-25.521-51.043-51.043-51.043zM564.873 242.256c0-30.626-20.417-51.043-51.043-51.043s-51.043 20.417-51.043 51.043 20.417 51.043 51.043 51.043c25.521 0 51.043-20.417 51.043-51.043z" />
<glyph unicode="&#xe929;" glyph-name="ic_exit" horiz-adv-x="1020" d="M969.024 912.096c30.528 0 50.88-20.352 50.88-50.88v-814.112c0-30.528-20.352-50.88-50.88-50.88h-712.352c-30.528 0-50.88 20.352-50.88 50.88v254.4h101.76v-203.52h610.592v712.352h-610.592v-203.52h-101.76v254.4c0 30.528 20.352 50.88 50.88 50.88 0 0 712.352 0 712.352 0zM546.72 672.96l178.080-178.080c20.352-20.352 20.352-50.88 0-71.232l-178.080-178.080c-20.352-20.352-50.88-20.352-71.232 0s-20.352 50.88 0 71.232l91.584 91.584h-513.92c-30.528 0-50.88 20.352-50.88 50.88s20.352 50.88 50.88 50.88h513.92l-96.672 96.672c-20.352 20.352-20.352 50.88 0 71.232 25.44 10.176 55.968 10.176 76.32-5.088z" />
<glyph unicode="&#xe92a;" glyph-name="ic_facebook" horiz-adv-x="506" d="M97.728 744.064c-0.128 37.728 4.288 69.024 20.896 103.904 33.024 69.28 102.016 110.688 211.744 110.688h148.704c14.88 0 26.976-12.064 26.976-26.976v-169.792c0-14.88-12.064-26.976-26.976-26.976h-109.344c-6.112 0-16.544-9.824-16.544-12.128v-84.544h125.696c15.648 0 28-13.28 26.88-28.896-1.92-27.008-4.608-54.944-7.84-83.072-2.432-21.152-5.024-41.184-7.648-59.52-1.568-11.040-2.784-19.072-3.52-23.488-2.112-13.056-13.376-22.656-26.624-22.656h-107.744v-457.664c0-14.88-12.064-26.976-26.976-26.976h-200.736c-14.88 0-26.976 12.064-26.976 26.976v457.696h-70.72c-14.88 0-26.976 12.064-26.976 26.976v163.072c0 14.88 12.064 26.976 26.976 26.976h70.752c0 0 0 106.4 0 106.4z" />
<glyph unicode="&#xe92b;" glyph-name="ic_faceid" d="M963.392 580.992c-39.776 0-62.080 22.304-62.080 63.168v118.208c0 49.024-25.6 72.992-72.448 72.992h-120.352c-40.32 0-63.168 22.304-63.168 62.624 0 39.776 22.304 62.080 63.168 62.080h131.776c120.896 0 185.696-64.256 185.696-184.64v-131.264c0.032-40.864-21.728-63.168-62.592-63.168zM65.408 580.992c-40.32 0-62.624 22.304-62.624 63.168v131.296c0 120.352 65.344 184.64 185.696 184.64h131.776c40.832 0 63.168-22.304 63.168-62.080 0-40.32-22.304-62.624-63.168-62.624h-120.352c-46.848 0-72.448-23.968-72.448-72.992v-118.176c0.032-40.352-21.792-63.232-62.048-63.232zM427.008 389.856c0 19.072 15.232 33.728 34.848 33.728h14.72c5.472 0 10.88 3.808 10.88 11.424v167.232c0 21.248 14.176 34.848 34.848 34.848 21.248 0 34.848-13.6 34.848-34.848v-166.112c0-53.92-29.376-82.752-82.752-82.752h-4.896c-27.776 0-42.496 14.656-42.496 36.48zM278.88 593.504c0 24.48 17.952 43.008 42.496 43.008 25.6 0 43.552-17.952 43.552-43.008v-72.448c0-25.6-17.952-43.008-43.552-43.008-24.48 0-42.496 17.44-42.496 43.008v72.448zM657.92 593.504c0 25.024 17.44 43.008 43.008 43.008 25.024 0 42.496-18.528 42.496-43.008v-72.448c0-25.6-17.44-43.008-42.496-43.008-25.6 0-43.008 17.44-43.008 43.008v72.448zM509.248 191.584c-66.976 0-132.32 27.776-174.272 74.048-6.528 7.072-10.368 15.232-10.368 25.6 0 19.616 15.232 34.304 35.424 34.304 11.424 0 18.528-4.896 28.32-14.176 30.496-30.496 75.68-50.080 120.896-50.080 45.728 0 92.576 19.072 121.44 50.080 8.704 9.248 16.352 14.176 27.776 14.176 19.616 0 34.848-14.72 34.848-34.304 0-10.88-3.808-19.616-9.248-26.144-46.336-45.728-110.592-73.504-174.816-73.504zM188.48-63.232c-120.352 0-185.696 64.256-185.696 184.64v131.2c0 40.832 21.792 63.168 62.624 63.168 40.32 0 62.080-22.304 62.080-63.168v-117.6c0-49.568 25.6-73.504 72.448-73.504h120.352c40.32 0 63.168-21.792 63.168-62.080 0-40.256-22.304-62.624-63.168-62.624l-131.808-0.032zM708.544-63.232c-40.832 0-63.168 22.304-63.168 62.624s22.304 62.080 63.168 62.080h120.352c46.848 0 72.448 23.968 72.448 73.504v117.664c0 40.832 21.792 63.168 62.080 63.168s62.624-22.304 62.624-63.168v-131.264c0-119.776-64.8-184.64-185.696-184.64l-131.776 0.032z" />
<glyph unicode="&#xe92c;" glyph-name="ic_faceid_touchid" horiz-adv-x="779" d="M292.059 350.025c0 53.797 43.557 97.353 97.353 97.353s97.353-43.557 97.353-97.353c0-36.023-19.566-67.511-48.677-84.297v-86.053c0-26.88-21.797-48.677-48.677-48.677s-48.677 21.797-48.677 48.677v86.053c-29.111 16.786-48.677 48.274-48.677 84.297zM243.383 617.728h292.059v97.353c0 80.64-65.353 146.030-146.030 146.030s-146.030-65.353-146.030-146.030v-97.353zM146.030 617.728v97.353c0 134.4 108.983 243.383 243.383 243.383s243.383-108.983 243.383-243.383v-97.353h97.353c26.88 0 48.677-21.797 48.677-48.677v-584.082c0-26.88-21.797-48.677-48.677-48.677h-681.472c-26.88 0-48.677 21.797-48.677 48.677v584.119c0 26.88 21.797 48.677 48.677 48.677l97.353-0.037zM681.435 520.411h-584.082v-486.766h584.082v486.766z" />
<glyph unicode="&#xe92d;" glyph-name="ic_faq" horiz-adv-x="1026" d="M514.742 857.392c-226.066 0-410.017-183.919-410.017-410.017 0-226.066 183.951-410.017 410.017-410.017s410.017 183.951 410.017 410.017c0 226.098-183.951 410.017-410.017 410.017zM514.742-64c-281.941 0-511.375 229.402-511.375 511.375s229.402 511.342 511.375 511.342 511.342-229.402 511.342-511.342-229.402-511.375-511.342-511.375zM508.103 242.093c30.953 0 56.1-25.083 56.1-56.035 0-31.017-25.147-56.164-56.099-56.164-31.017 0-56.099 25.147-56.099 56.164 0 30.953 25.083 56.035 56.099 56.035zM551.533 753.789c40.832-5.741 78.809-23.222 106.971-49.203 45.258-41.954 64.503-106.778 50.23-169.197-8.404-36.886-27.52-70.694-55.233-97.861-19.149-18.764-42.532-35.219-73.484-51.801-16.968-9.109-27.809-30.407-24.73-48.498 4.715-27.553-13.824-53.758-41.441-58.441-2.887-0.513-5.741-0.77-8.564-0.77-24.281 0-45.643 17.417-49.909 42.147-10.489 61.36 21.138 125.061 76.884 154.859 22.196 11.9 38.266 22.998 50.358 34.93 13.985 13.696 23.222 29.862 27.36 47.952 6.126 26.815-1.828 55.137-20.207 72.201-13.183 12.124-31.722 20.432-52.25 23.319-21.522 2.951-43.173-0.192-61.071-8.981-30.503-14.883-49.909-47.632-48.241-81.375 1.315-27.937-20.272-51.673-48.241-53.052-27.681-0.802-51.673 20.272-53.052 48.177-3.56 74.735 37.656 144.306 104.95 177.247 35.86 17.705 78.328 24.185 119.672 18.347z" />
<glyph unicode="&#xe92e;" glyph-name="ic_fastlane" horiz-adv-x="1100" d="M789.999 736.65v42.485c0 2.987-1.179 5.502-1.69 8.332 41.974 6.131 74.398 42.013 74.398 85.638 0 47.869-38.987 86.896-86.896 86.896h-158.621c-47.869 0-86.896-38.987-86.896-86.896 0-42.524 30.773-77.896 71.254-85.324-0.511-2.948-1.769-5.62-1.769-8.646v-42.799c-96.721-23.502-179.883-81.433-235.73-160.35h-227.398c-28.454 0-51.564-23.109-51.564-51.564s23.109-51.564 51.564-51.564h174.813c-7.271-21.341-12.694-43.467-16.349-66.184h-241.39c-28.454 0-51.564-23.031-51.564-51.564 0-28.494 23.109-51.564 51.564-51.564h237.695c1.651-17.528 4.638-34.703 8.45-51.485h-91.14c-28.454 0-51.564-23.031-51.564-51.564s23.109-51.564 51.564-51.564h129.656c68.817-126.708 203.031-212.935 357.132-212.935 223.94 0 406.102 182.123 406.102 406.024-0.039 191.438-133.193 351.866-311.621 394.626zM695.479 39.206c-167.071 0-302.936 135.944-302.936 302.936 0 167.071 135.944 302.936 302.936 302.936 167.071 0 303.014-135.944 303.014-302.936s-135.904-302.936-303.014-302.936zM789.134 510.981l-85.323-87.564c-2.79 0.275-5.463 0.825-8.293 0.825-1.69 0-3.301-0.393-4.991-0.511l-39.577 39.655c-20.162 20.201-52.743 20.201-72.944 0.039-20.162-20.122-20.201-52.743-0.039-72.944l36.708-36.747c-0.55-3.812-1.179-7.624-1.179-11.594 0-45.275 36.786-82.061 82.022-82.061 45.275 0 82.061 36.786 82.061 82.061 0 2.83-0.55 5.502-0.825 8.293l86.306 88.625c19.847 20.397 19.415 53.057-1.022 72.904-20.319 19.729-52.939 19.415-72.904-0.983z" />
<glyph unicode="&#xe92f;" glyph-name="ic_feedback" horiz-adv-x="1208" d="M1087.212 960h-959.995c-70.386 0-128.009-57.585-128.009-128.009v-569.585c0-70.386 57.585-128.009 128.009-128.009h6.382v-70.386c0-51.204 31.983-95.988 76.806-115.208 19.183-6.382 31.983-12.801 51.204-12.801 31.983 0 64.005 12.801 83.187 31.983l185.595 166.412h550.403c70.386 0 128.009 57.585 128.009 128.009v576.005c6.419 64.005-51.204 121.59-121.59 121.59zM1087.212 832.028v-576.005h-601.607l-223.998-198.396v198.396h-134.391v576.005h959.995z" />
<glyph unicode="&#xe930;" glyph-name="ic_fees" horiz-adv-x="964" d="M945.6 823.52c26.016-28.512 23.584-72.352-5.504-97.952-29.088-25.568-73.728-23.136-99.744 5.376-56.192 61.6-148.512 93.856-240.384 85.184-81.376-7.648-159.648-48.672-211.488-110.752-19.52-23.424-35.488-49.952-47.872-78.88l225.248-0.064c39.008 0 70.656-31.008 70.656-69.344 0-38.272-31.648-69.344-70.656-69.344h-256.32c-1.088-19.808-0.896-39.968 0.512-60.352h255.776c39.008 0 70.656-31.008 70.656-69.344 0-38.272-31.648-69.344-70.656-69.344l-227.36-0.064c20.576-59.616 50.016-108.16 88.256-142.912 41.856-38.112 98.72-62.848 159.36-69.696 93.472-10.592 194.4 23.296 256.288 86.88 26.944 27.68 71.68 28.704 99.872 2.272 28.256-26.432 29.248-70.336 2.336-98.048-93.12-95.744-238.144-144.384-374.624-128.896-89.824 10.144-174.848 47.168-239.264 105.824-67.328 61.248-112.8 145.184-139.616 244.64l-120.352 0.064c-39.008 0-70.656 31.008-70.656 69.344 0 38.272 31.648 69.344 70.656 69.344h97.76c-1.12 20.256-1.312 40.448-0.448 60.352h-97.376c-39.008 0-70.656 31.008-70.656 69.344 0 38.272 31.648 69.344 70.656 69.344h120.128c18.336 61.44 47.712 118.144 88.32 166.784 75.648 90.688 188.384 149.76 307.328 160.96 135.072 12.768 271.872-35.040 359.168-130.72z" />
<glyph unicode="&#xe931;" glyph-name="ic_female" horiz-adv-x="955" d="M480.644-66.143h-480.644c0 0 13.183 139.614 158.007 190.933 144.856 51.351 189.647 89.55 196.238 117.235v35.402c0 0-141.351 14.598-174.759 55.884 0 0-7.878 13.151 5.305 24.598 0 0 24.534 11.801 24.534 208.007 0 196.238 56.656 276.56 56.656 276.56s122.476 184.341 305.531 88.199c0 0 125.048 7.942 158.007-106.656 0 0 38.135-142.219 26.334-256.785 0 0-4.63-206.11 29.582-217.299 0 0 2.412-7.781-3.923-18.392 0 0-21.769-40.161-179.132-55.306v-29.679c0 0 22.122-74.341 206.11-124.405 0 0 137.010-44.791 146.206-188.328l-474.052 0.032z" />
<glyph unicode="&#xe932;" glyph-name="ic_file" horiz-adv-x="841" d="M107.663 42.087v820.473h358.961v-256.378c0-25.654 20.51-51.276 51.276-51.276h225.612v-512.82h-635.849zM810.186 652.315l-276.92 276.92c-20.51 20.51-46.164 30.765-71.786 30.765h-358.929c-56.419 0-102.551-46.164-102.551-102.551v-820.473c0-25.654 10.255-51.276 30.765-71.786s46.164-30.765 71.786-30.765h635.849c56.419 0 102.551 46.164 102.551 102.551v543.553c0 25.654-10.255 51.276-30.765 71.786v0z" />
<glyph unicode="&#xe933;" glyph-name="ic_flashlight_off" horiz-adv-x="432" d="M110.177 595.234c-72.319 114.825-106.33 191.375-106.33 233.913v42.538h425.32v-42.538c0-42.538-34.012-119.088-106.33-233.913v-595.442c0-34.012-29.78-63.792-63.792-63.792h-85.077c-34.012 0-63.792 29.78-63.792 63.792v595.442zM216.507 552.695c-34.012 0-63.792-29.78-63.792-63.792v-85.077c0-34.012 29.78-63.792 63.792-63.792s63.792 29.78 63.792 63.792v85.077c0 34.012-25.517 63.792-63.792 63.792zM216.507 361.288c-25.517 0-42.538 17.022-42.538 42.538s17.022 42.538 42.538 42.538 42.538-17.022 42.538-42.538-17.022-42.538-42.538-42.538zM46.385 956.73h340.243c25.517 0 42.538-17.022 42.538-42.538v-21.253h-425.32v21.285c0 25.517 21.253 42.506 42.538 42.506z" />
<glyph unicode="&#xe934;" glyph-name="ic_flashlight_on" horiz-adv-x="428" d="M110.748 596.973c-67.881 110.327-106.083 186.698-106.083 229.144v42.446h424.33v-42.446c0-42.446-33.957-118.816-106.083-233.388v-594.082c0-33.957-29.712-63.637-63.637-63.637h-84.86c-33.957 0-63.637 29.712-63.637 63.637v598.326h-0.032zM216.831 554.527c-33.957 0-63.637-29.712-63.637-63.637v-84.86c0-33.957 29.712-63.637 63.637-63.637 33.957 0 63.637 29.712 63.637 63.637v84.86c0.032 33.924-25.435 63.637-63.637 63.637zM216.831 448.445c-25.468 0-42.446 16.978-42.446 42.446s16.978 42.446 42.446 42.446 42.446-16.978 42.446-42.446-16.978-42.446-42.446-42.446zM47.112 957.635h339.471c25.468 0 42.446-16.978 42.446-42.446v-21.223h-424.363v21.255c0 21.223 21.223 42.414 42.446 42.414z" />
<glyph unicode="&#xe935;" glyph-name="ic_fremdwaehrungsentgelt" horiz-adv-x="1207" d="M264.23 250.689l-8.661-0.431c-12.798 0-28.957 5.731-41.755 12.151 76.787-192.011 262.42-326.41 479.984-326.41 281.596 0 512 230.404 512 512s-236.782 512-518.377 512c-128.022 0-255.698-55.63-345.283-132.417 6.42-32.016 12.496-65.971 6.076-110.785l32.016-19.218 6.42-6.42c70.41 83.208 179.213 140.819 300.814 140.819 12.798 0 32.016 0 44.814 0-6.42 0-6.42-6.42-12.798-6.42-38.394-25.596-89.585-19.218-96.005-57.612 0-19.218 51.191 12.798 63.989 0 6.42-6.42 57.612 0 63.989 0 25.596 0-63.989-63.989 0-63.989 25.596 0 25.596 19.218 57.612 19.218 76.787 0 140.819-19.218 140.819-38.394 0-6.42-6.42-38.394-6.42-38.394-12.841-12.798-38.437 19.218-70.453 19.218-6.42 0-19.218 0-25.596 0-25.596 0-38.394 6.42-44.814 6.42-12.798 6.42-25.596 12.798-57.612 12.798s-96.005-6.42-134.399-44.814c-32.016-32.016-32.016-70.41-25.596-96.005 0-6.42 0-12.798 0-19.218 0-38.393 38.394-63.989 83.208-63.989 63.989 0 115.181-12.798 121.601-19.218 0-25.596 6.42-38.393 12.798-51.191 6.42-12.798 6.42-19.218 6.42-32.016 0-6.42 0-12.798-6.42-19.218-6.42-12.798-12.798-19.218-12.798-44.814 0-44.814 38.394-89.585 44.814-96.005s6.42-6.42 12.798-6.42h6.42c12.798 0 115.181 32.016 115.181 102.383 0 19.218 6.42 25.596 19.218 38.394 12.798 6.42 25.596 19.218 25.596 44.814 0 19.218 32.016 44.814 57.612 70.41 0-211.186-172.792-384.021-384.022-384.021-96.005 0-185.59 38.394-256 96.005 6.42 19.218 12.798 32.016 25.596 44.814 12.798 19.218 32.016 44.814 32.016 70.41 0 44.814-44.469 57.612-70.065 57.612 4.481-5.516 6.076-6.42 6.076-12.798l0.517-17.926c0-19.218-6.894-26.888-19.692-39.686s-19.649-19.52-38.868-19.52c-6.42 0-16.762 1.594-32.533 9.351l-43.694 17.021c0 0.086-12.625-15.987-26.544-18.486zM988.235 582.399c19.218-6.42 19.218-12.798 25.596-19.218 6.42-6.42 12.798-12.798 25.596-12.798 6.42 0 6.42 0 12.798 6.42 6.42-12.798 6.42-25.596 12.798-44.814-57.612 25.596-121.601 63.989-76.787 70.41zM367.992 628.85l-55.156 29.689c0.172 8.575 0.388 16.719 0.56 24.432 1.163 44.9 1.939 77.304-2.025 104.925-4.998 34.171-16.633 63.257-31.111 77.821-4.74 4.654-9.351 7.368-13.875 8.316-0.517 0.129-1.939 0.517-3.749 0.474-1.81 0-3.059-0.302-3.404-0.431-4.697-0.905-9.308-3.749-14.047-8.403-14.392-14.521-25.984-43.651-30.896-77.907-3.964-27.707-3.103-60.197-1.853-105.227 0.172-7.627 0.431-15.685 0.646-24.131l-203.43-109.924c-1.293-0.689-2.413-1.551-3.533-2.629-3.016-3.146-4.74-7.11-4.74-11.204l0.043-30.336c0-3.447 1.336-6.722 3.577-8.877 3.189-3.318 8.015-4.481 12.41-3.146l143.276 40.72 53.777 0.043c1.336-49.726 4.524-95.919 9.221-134.27 0.431-3.577 0.905-6.981 1.336-10.385l-76.485-63.989c-0.388-0.302-0.776-0.646-1.293-1.163-3.146-3.275-4.998-7.67-5.128-12.281v-14.134c-0.043-3.447 1.293-6.765 3.576-8.963 3.318-3.447 8.575-4.524 13.056-2.801l72.823 25.984c0.646 0.172 2.542 0.517 3.275 0.517l8.187 0.043c2.284-4.869 4.783-8.704 7.541-11.462 3.663-3.706 8.015-5.645 12.539-5.645h0.345c4.611 0.043 8.747 1.939 12.496 5.688 2.629 2.758 5.128 6.464 7.412 11.376h8.316c0.646 0 2.499-0.302 3.146-0.56l72.693-25.811c4.611-1.724 9.738-0.646 13.056 2.672l0.043 0.043c2.284 2.284 3.577 5.516 3.577 8.877l-0.043 14.521c-0.129 4.395-1.982 8.747-5.257 12.151-0.388 0.388-0.689 0.689-0.905 0.819l-76.916 63.989c0.431 3.404 0.905 6.765 1.336 10.385 4.654 38.35 7.756 84.629 8.963 134.27h53.82l143.189-40.376c4.481-1.422 9.264-0.172 12.539 3.059 2.37 2.37 3.663 5.516 3.663 8.963v30.508c-0.043 4.050-1.81 8.015-4.869 11.074-1.034 1.034-2.155 1.939-3.404 2.542l-101.564 54.596z" />
<glyph unicode="&#xe936;" glyph-name="ic_garminwatch" horiz-adv-x="747" d="M733.193 495.872h-24.905c-15.031 120.174-89.819 221.513-193.792 273.664v146.066c0 24.539-19.968 44.471-44.544 44.471h-230.546c-24.539 0-44.471-19.968-44.471-44.471v-146.615c-116.005-58.734-195.73-178.725-195.73-317.623s79.726-258.926 195.73-317.623v-153.161c0-24.539 19.968-44.581 44.471-44.581h230.546c24.539 0 44.544 19.968 44.544 44.544v152.613c103.973 52.151 178.761 153.454 193.792 273.664h24.905c7.351 0 13.385 6.034 13.385 13.385v62.245c0 7.387-6.034 13.422-13.385 13.422zM354.642 207.323c-135.534 0-245.431 109.861-245.431 245.431s109.861 245.394 245.431 245.394 245.431-109.861 245.431-245.431-109.897-245.394-245.431-245.394z" />
<glyph unicode="&#xe937;" glyph-name="ic_geld_abheben" horiz-adv-x="1707" d="M853.219 733.296c-159.814 0-289.892-130.017-289.892-289.892s130.017-289.892 289.892-289.892c159.753 0 289.77 130.017 289.77 289.892s-130.017 289.892-289.77 289.892zM853.219 302.618c-77.643 0-140.847 63.204-140.847 140.847s63.204 140.847 140.847 140.847 140.786-63.204 140.786-140.847-63.142-140.847-140.786-140.847zM341.96 534.813c-50.477 0-91.287-40.932-91.287-91.287s40.871-91.287 91.287-91.287c50.416 0 91.287 40.932 91.287 91.287s-40.871 91.287-91.287 91.287zM1346.795 534.813c-50.477 0-91.287-40.932-91.287-91.287s40.933-91.287 91.287-91.287 91.287 40.932 91.287 91.287-40.81 91.287-91.287 91.287zM1643.417 959.924h-235.010c-5.262 0-7.464 0-10.279 0l-1090.615 0.061c-2.876 0-12.543 0.061-15.357-0.061h-229.014c-34.753 0-63.142-28.39-63.142-63.142v-438.51l-0.734-208.639c0-2.692 0.612-5.262 0.734-7.954v-242.536c0-34.753 28.39-63.142 63.142-63.142h1580.275c34.753 0 63.142 28.39 63.142 63.142v897.639c0 34.692-28.39 63.142-63.142 63.142zM1554.944 249.020c-14.684 0-155.348-4.099-153.206-162.445h-1073.789c0 0.245 0.061 0.428 0.061 0.673 0 98.752-80.029 178.72-178.72 178.72-0.061 0-0.122 0-0.245 0v191.63l0.673 174.437c98.507 0.245 178.292 80.091 178.292 178.72 0 0 0 0 0 0.061h1048.581c0.428-98.14 79.968-177.496 178.108-177.802l1.407-383.994c0 0-0.367 0-1.163 0z" />
<glyph unicode="&#xe938;" glyph-name="ic_geld_senden" horiz-adv-x="931" d="M838.75 25.874h-745.849v428.213l348.234-213.96c15.104-9.31 34.374-9.31 49.478 0l348.169 213.96v-428.213c0 0-0.033 0-0.033 0zM201.102 580.875v-86.229l-68.683 42.219 68.683 44.009zM294.004 640.313v145.895c2.734-0.293 5.436-0.781 8.203-0.781 38.476 0 69.627 30.403 69.627 68 0 5.436-0.846 10.709-2.083 15.853h195.21c-1.269-5.111-2.051-10.384-2.051-15.853 0-37.597 31.119-68 69.627-68 2.799 0 5.501 0.521 8.138 0.781v-346.672l-174.996-107.55-171.838 105.597v202.73c0 0 0.163 0 0.163 0zM733.675 578.563l65.493-41.698-65.493-40.233v81.932zM930.643 543.050c-0.13 1.107-0.195 2.344-0.456 3.45-1.204 4.948-3.223 9.635-6.055 13.965-0.618 0.944-1.4 1.758-2.148 2.669-2.702 3.483-5.924 6.608-9.635 9.31-0.684 0.521-1.074 1.204-1.758 1.693l-176.917 112.758v227.794c0 24.999-20.768 45.311-46.451 45.311h-439.671c-25.618 0-46.451-20.312-46.451-45.311v-225.32l-180.074-115.297c-0.749-0.456-1.074-1.172-1.758-1.693-3.809-2.669-7.031-5.859-9.7-9.31-0.684-0.879-1.497-1.693-2.083-2.604-2.832-4.297-4.85-9.049-6.022-13.965-0.293-1.107-0.326-2.376-0.521-3.548-0.326-2.279-0.944-4.427-0.944-6.738v-555.651c0-25.065 20.833-45.311 46.451-45.311h838.718c25.65 0 46.451 20.247 46.451 45.311v555.586c0 2.344-0.586 4.59-0.977 6.901v0zM465.842 568.017c-14.518 0-26.399-11.556-26.399-25.813s11.881-25.813 26.399-25.813c14.583 0 26.464 11.556 26.464 25.813s-11.881 25.813-26.464 25.813zM465.842 425.735c-65.819 0-119.301 52.277-119.301 116.436 0 64.224 53.482 116.436 119.301 116.436s119.333-52.212 119.333-116.436c0-64.126-53.514-116.436-119.333-116.436z" />
<glyph unicode="&#xe939;" glyph-name="ic_geo_control" horiz-adv-x="1027" d="M512.129 63.741c-96.024 0-185.647 38.41-256.065 96.024 6.402 19.205 12.803 32.008 25.606 44.811 12.803 19.205 32.008 44.811 32.008 70.418 0 51.213-44.811 57.615-70.418 57.615-19.205 0-32.008 6.402-44.811 12.803-6.402 6.402-12.803 19.205-19.205 32.008-12.803 19.205-25.606 44.811-44.811 64.016v0 0c0 211.253 172.844 384.097 384.097 384.097 12.803 0 32.008 0 44.811 0-6.402 0-6.402-6.402-12.803-6.402-32.008-19.205-89.623-12.803-96.024-51.213 0-19.205 51.213 12.803 64.016 0 6.402-6.402 57.615 0 64.016 0 25.606 0-64.016-64.016 0-64.016 25.606 0 25.606 19.205 57.615 19.205 76.819 0 140.836-19.205 140.836-38.41 0-6.402-6.402-38.41-6.402-38.41-12.803-12.803-38.41 19.205-70.418 19.205-6.402 0-19.205 0-25.606 0-25.606 0-38.41 6.402-44.811 6.402-12.803 6.402-25.606 12.803-57.615 12.803s-96.024-6.402-134.434-44.811c-32.008-32.008-32.008-70.418-25.606-96.024 0-6.402 0-12.803 0-19.205 0-38.41 38.41-64.016 83.221-64.016 64.016 0 115.229-12.803 121.631-19.205 0-25.606 6.402-38.41 12.803-51.213s6.402-19.205 6.402-32.008c0-6.402 0-12.803-6.402-19.205-6.402-12.803-12.803-19.205-12.803-44.811 0-44.811 38.41-89.623 44.811-96.024s6.402-6.402 12.803-6.402h6.402c12.803 0 115.229 32.008 115.229 102.426 0 19.205 6.402 25.606 19.205 38.41 12.803 6.402 25.606 19.205 25.606 44.811 0 19.205 32.008 44.811 57.615 70.418-6.402-211.253-172.844-384.097-390.499-384.097zM819.407 582.305c19.205-6.402 19.205-12.803 25.606-19.205s12.803-12.803 25.606-12.803c6.402 0 6.402 0 12.803 6.402 6.402-12.803 6.402-25.606 12.803-44.811-57.615 25.606-121.631 64.016-76.819 70.418zM512.129 960c-281.671 0-512.129-230.458-512.129-512.129s230.458-512.129 512.129-512.129 512.129 230.458 512.129 512.129-224.057 512.129-512.129 512.129z" />
<glyph unicode="&#xe93a;" glyph-name="ic_geschenk" horiz-adv-x="1073" d="M984.852 461.986h-896.94v160.248c0 0.135 0.102 0.237 0.237 0.237h896.669c0.034 0 0.034-160.485 0.034-160.485zM923.117 25.098h-773.638v347.756h773.875v-347.485c0-0.169-0.135-0.271-0.237-0.271v0zM297.129 847.129c14.765 15.104 36.337 23.739 59.094 23.739 22.723 0 44.261-8.635 59.060-23.807 19.608-19.912 58.958-83.883 71.725-135.459h-172.676c-7.145 5.452-13.106 10.464-17.305 14.731-32.578 33.289-32.51 87.472 0.102 120.795v0zM657.55 847.129c29.632 30.173 88.556 30.173 118.12 0 32.679-33.289 32.679-87.472-0.102-120.931-3.996-4.131-9.855-9.11-17.102-14.596h-172.676c12.801 51.542 52.084 115.512 71.759 135.526v0zM967.344 711.602h-96.751c30.444 64.749 19.98 144.67-32.51 198.379-31.155 31.833-75.518 50.086-121.473 50.018-45.921 0-90.249-18.253-121.405-50.018-11.886-12.090-36.608-45.311-58.755-86.761-22.181 41.45-46.903 74.604-58.755 86.761-31.155 31.799-75.383 50.018-121.405 50.018s-90.385-18.253-121.54-50.018c-52.558-53.709-62.988-133.562-32.612-198.379h-96.616c-58.18 0-105.522-47.986-105.522-106.978v-155.981c0-37.251 26.584-68.305 61.532-74.604v-331.061c0-58.992 47.343-106.979 105.522-106.979h738.656c58.112 0 105.522 47.986 105.522 106.979v331.061c34.948 6.333 61.532 37.353 61.532 74.604v155.981c0.034 58.992-47.241 106.978-105.421 106.978v0z" />
<glyph unicode="&#xe93b;" glyph-name="ic_girokonto" horiz-adv-x="1535" d="M532.375 144.463l-5.264 37.997c-8.115-11.953-20.89-22.59-38.49-31.911s-39.752-13.982-66.454-13.982c-26.044 0-50.608 4.496-73.636 13.762-23.028 9.157-43.096 22.261-60.148 39.368s-30.65 37.558-40.629 61.464c-9.979 23.961-15.023 50.717-15.023 80.216 0 29.553 5.209 56.255 15.517 80.216 10.418 23.906 24.399 44.357 42.219 61.464 17.765 17.052 38.381 30.211 61.958 39.587 23.577 9.321 48.579 13.982 74.952 13.982 26.702 0 50.005-3.564 69.908-10.856s36.791-16.394 50.718-27.47c13.927-11.076 25.112-23.467 33.556-37.229s14.749-27.031 19.026-40.135l-80.216-27.963c-1.426 5.647-4.167 12.227-8.17 19.794-4.003 7.621-9.705 14.749-17.162 21.603s-16.778 12.446-27.854 17.052c-11.076 4.606-24.344 6.854-39.861 6.854-12.611 0-25.496-2.193-38.49-6.58-13.049-4.441-24.893-11.35-35.585-20.835-10.747-9.486-19.465-21.603-26.099-36.462-6.634-14.749-9.979-32.514-9.979-53.349 0-19.739 2.961-36.955 8.937-51.704s14.146-27.031 24.564-36.955c10.418-9.815 22.371-17.326 35.859-22.425s27.908-7.676 42.986-7.676c15.462 0 28.786 2.193 39.861 6.58 11.076 4.332 20.287 9.705 27.744 16.12 7.402 6.305 13.049 12.995 17.162 20.068 4.003 7.018 6.58 13.214 7.676 18.423h-112.565v70.73h190.478v-200.019h-67.495v0.274zM678.332 488.519c0 6.305 1.206 12.392 3.674 18.203s5.812 10.856 9.979 15.023 9.157 7.512 14.749 9.979c5.647 2.467 11.624 3.674 17.929 3.674 13.378 0 24.673-4.606 33.775-13.762s13.762-20.232 13.762-33.282-4.606-24.070-13.762-33.282c-9.157-9.157-20.397-13.762-33.775-13.762-6.305 0-12.282 1.206-17.929 3.674s-10.582 5.812-14.749 10.089c-4.277 4.167-7.621 9.211-9.979 15.023-2.412 5.976-3.674 12.117-3.674 18.423zM685.131 145.998v262.305h80.216v-262.305h-80.216zM1018.989 327.594c-4.606 1.042-8.937 1.809-13.214 2.138s-8.279 0.494-12.117 0.494c-8.115 0-15.846-1.206-23.193-3.674-7.402-2.467-13.927-6.47-19.519-12.117s-10.143-12.995-13.488-22.206c-3.345-9.157-5.044-20.232-5.044-33.282v-114.539h-80.216v262.305h77.584v-35.31c3.509 7.402 8.005 13.543 13.488 18.423 5.483 4.935 11.35 8.773 17.655 11.624 6.305 2.796 12.721 4.88 19.3 6.086 6.47 1.206 12.392 1.864 17.655 1.864 8.115 0 15.078-0.877 21.055-2.632v-79.174h0.055zM1196.637 414.663c19.739 0 37.997-3.399 54.885-10.308 16.833-6.854 31.582-16.449 44.028-28.786 12.446-12.282 22.261-26.867 29.553-43.754 7.238-16.888 10.856-35.585 10.856-55.981s-3.564-39.148-10.856-56.255-17.052-31.746-29.553-44.028c-12.556-12.282-27.196-21.932-44.028-28.786-16.888-6.854-35.146-10.253-54.885-10.253s-38.052 3.399-54.885 10.253c-16.888 6.854-31.582 16.449-44.028 28.786-12.556 12.282-22.371 26.976-29.608 44.028s-10.856 35.859-10.856 56.255c0 20.397 3.564 39.094 10.856 55.981s17.052 31.472 29.608 43.754c12.446 12.282 27.141 21.932 44.028 28.786 16.833 6.854 35.091 10.308 54.885 10.308zM1196.637 210.423c7.786 0 15.078 1.261 22.206 4.003 7.018 2.632 13.214 6.634 18.697 12.117s9.815 12.227 13.214 20.287c3.345 8.115 5.044 17.765 5.044 29.005 0 10.911-1.645 20.506-5.044 28.786s-7.786 15.023-13.214 20.287c-5.483 5.264-11.679 9.211-18.697 11.843-7.073 2.632-14.42 3.948-22.206 3.948-7.402 0-14.749-1.261-21.932-3.948-7.238-2.632-13.543-6.58-19.026-11.843s-9.815-12.008-13.214-20.287-5.044-17.82-5.044-28.786c0-10.911 1.645-20.506 5.044-28.786 3.345-8.279 7.786-15.078 13.214-20.561 5.483-5.483 11.788-9.486 19.026-12.117 7.183-2.687 14.53-3.948 21.932-3.948zM1452.001 960h-1365.37c-51.211 0-85.315-34.159-85.315-85.315v-853.37c0-51.211 34.159-85.315 85.315-85.315h1365.37c51.211 0 85.315 34.159 85.315 85.315v853.37c0.055 42.658-34.104 85.315-85.315 85.315zM1366.686 106.63h-1194.74v384.027h83.944c37.394 47.702 102.312 79.448 176.552 79.448 76.816 0 143.38-34.159 179.951-84.657 0.932-0.932 2.029-2.577 2.906-3.345h21.493c-0.11 1.371 0 2.577 0 4.003 0 48.579 39.861 87.892 88.989 87.892s88.989-39.368 88.989-87.892c0-1.426 0.165-2.577 0.11-4.003h551.697v-375.474h0.11zM1366.686 789.37v-128.027h-1194.74v128.027h1194.74z" />
<glyph unicode="&#xe93c;" glyph-name="ic_home" horiz-adv-x="1084" d="M542.078 960c-30.475 0-59.88-11.928-81.978-33.301l-423.644-410.407c-34.887-33.784-45.953-85.701-27.889-131.068 13.238-33.37 40.299-58.26 72.946-69.085l-0.414-260.206c-0.069-31.819 12.342-62.328 34.577-84.805s52.469-35.128 83.839-35.128h174.918c64.948 0 117.692 52.71 118.485 118.244l1.517 126.552 97.698 0.31-0.069-125.346c0-31.75 12.479-62.225 34.68-84.632 22.235-22.511 52.331-35.128 83.805-35.128h173.402c65.465 0 118.485 53.606 118.485 119.692l0.069 260.413c32.646 10.721 59.708 35.611 73.049 68.981 18.133 45.16 7.239 96.974-27.475 130.896l-419.852 410.165c-20.96 20.546-48.78 32.577-78.013 33.612l-3.792 0.172c-1.448 0.069-2.896 0.069-4.344 0.069zM542.078 840.308l3.723-0.103 419.887-410.338h-81.668l-0.069-374.175h-173.402l0.103 245.589-333.29-0.965-2.965-244.624h-174.884l0.586 374.175h-81.599l423.575 410.441z" />
<glyph unicode="&#xe93d;" glyph-name="ic_hourglass" horiz-adv-x="970" d="M237.164 108.456c0 118.582 70.075 167.088 102.413 183.257 64.675 32.338 102.413 91.612 102.413 161.688s-37.738 129.35-102.413 161.688c-32.338 16.169-102.413 64.675-102.413 183.257v53.842h495.831v-59.275c0-118.582-80.844-172.456-102.413-183.257-64.675-32.338-102.413-91.612-102.413-161.688s37.738-129.35 102.413-161.688c32.338-16.169 102.413-64.675 102.413-183.257v-59.275h-495.831v64.708zM916.219 49.181h-75.443v59.275c0 123.95-59.275 226.363-161.688 280.237-26.937 10.768-43.106 32.338-43.106 64.675 0 26.937 16.169 53.907 43.106 64.675 102.413 53.907 161.688 156.287 161.688 280.237v53.907h75.443c32.338 0 53.907 21.569 53.907 53.907s-21.569 53.907-53.907 53.907h-862.312c-32.338 0-53.907-21.569-53.907-53.907s21.569-53.907 53.907-53.907h75.443v-59.275c0-123.95 59.275-226.363 161.688-280.237 26.937-16.169 43.106-37.738 43.106-64.675s-16.169-53.907-43.106-64.675c-102.413-53.907-161.688-156.287-161.688-280.237v-59.275h-75.443c-32.338 0-53.907-21.569-53.907-53.907s21.569-53.907 53.907-53.907h862.312c32.338 0 53.907 21.569 53.907 53.907 0 32.305-21.569 59.275-53.907 59.275v0z" />
<glyph unicode="&#xe93e;" glyph-name="ic_idea" horiz-adv-x="764" d="M503.529 104.956c0-20.492 0-46.067-5.115-66.559-5.115-30.722-25.607-46.067-56.33-51.215-5.115 0-10.23-5.115-15.345-10.23-10.23-25.607-30.722-40.952-61.445-40.952-25.607 0-46.067 15.345-56.33 40.952-5.115 5.115-5.115 10.23-10.23 10.23-40.952 10.23-56.33 35.837-56.33 76.789 0 15.345 0 30.722 0 46.067h261.123v-5.082zM380.64 960h15.345c184.334-5.115 337.913-143.349 363.52-322.568 20.492-143.349-30.722-271.353-148.496-358.405 0 0 0 0 0-5.115v-15.345c-5.115-51.215-46.067-92.167-102.397-97.282h-245.746c-51.215 0-97.282 35.837-107.512 87.052v25.575c0 0 0 5.115-5.115 10.23-87.052 66.559-138.234 158.726-148.496 266.238-15.345 158.726 71.674 307.19 220.171 378.897 46.067 20.492 97.282 30.722 158.726 30.722zM380.64 852.488c-40.952 0-81.904-10.23-117.774-25.607-107.512-51.215-168.956-153.611-158.726-271.353 5.115-76.789 40.952-143.349 107.512-189.449 25.607-20.492 40.952-40.952 46.067-71.674v-20.46h235.516c0 5.115 0 5.115 0 5.115 5.115 35.837 15.345 66.559 46.067 87.052 87.052 66.559 122.889 153.611 107.512 256.008-20.427 138.201-138.169 230.368-266.173 230.368z" />
<glyph unicode="&#xe93f;" glyph-name="ic_infinity" horiz-adv-x="2178" d="M1655.104-64c-168.673 0-328.424 62.102-434.925 177.525-35.477 35.477-26.625 88.728 8.852 124.274s88.728 26.625 124.274-8.852c71.024-79.876 177.525-124.274 301.799-124.274h8.852c115.353 0 239.627 79.876 292.878 186.377s53.25 239.627-8.852 337.276c-88.728 142.047-284.026 186.377-426.073 115.353s-248.548-204.15-355.049-346.128l-35.477-44.398c-62.102-88.728-133.126-177.525-213.002-248.548-213.002-186.377-559.199-248.548-781.053-17.773-124.274 133.264-168.604 319.641-115.353 497.166 53.25 168.673 186.377 301.799 363.901 355.049s443.777 8.852 576.903-177.525c26.625-35.477 17.773-97.649-17.773-124.274-35.477-26.625-97.649-17.773-124.274 17.773-79.876 115.353-257.4 142.047-381.674 106.501-115.353-35.546-204.081-124.274-239.558-239.696-35.477-106.501 0-239.627 71.024-319.503 142.047-150.899 381.674-106.501 532.574 26.625 71.024 62.102 133.126 142.047 195.298 221.923l35.477 44.398c115.353 159.751 239.627 301.799 408.3 399.448 230.775 124.274 514.801 44.398 656.848-168.673 97.649-150.899 106.501-355.049 17.773-514.801-97.787-159.821-284.164-275.243-461.688-275.243v0z" />
<glyph unicode="&#xe940;" glyph-name="ic_information" horiz-adv-x="1025" d="M922.839 447.98c0 225.364-184.368 409.732-409.732 409.732s-409.732-184.368-409.732-409.732 184.368-409.732 409.732-409.732 409.732 184.368 409.732 409.732zM1025.28 447.98c0-281.689-230.484-512.173-512.173-512.173s-512.173 230.484-512.173 512.173 230.484 512.173 512.173 512.173 512.173-230.484 512.173-512.173zM513.107 550.421c30.723 0 51.204-20.482 51.204-51.204v-281.689c0-30.723-20.482-51.204-51.204-51.204s-51.204 20.482-51.204 51.204v281.689c0 30.723 20.482 51.204 51.204 51.204zM564.311 652.862c0-30.723-20.482-51.204-51.204-51.204s-51.204 20.482-51.204 51.204 20.482 51.204 51.204 51.204 51.204-20.482 51.204-51.204z" />
<glyph unicode="&#xe941;" glyph-name="ic_kartenlimit" horiz-adv-x="1541" d="M1516.36 235.457l-201.425 177.721c-3.781 3.33-8.24 4.967-12.529 7.506-3.612 2.145-6.773 4.797-10.723 6.377-9.143 3.612-18.737 5.644-28.332 5.757-0.226 0-0.395 0.056-0.564 0.056-0.056 0-0.169-0.056-0.226-0.056-9.764 0-19.471-2.145-28.727-5.813-3.951-1.58-6.998-4.233-10.61-6.377-4.176-2.427-8.748-4.176-12.416-7.506l-201.82-177.947c-32.677-28.727-35.725-78.504-6.998-111.069 15.52-17.721 37.305-26.695 59.033-26.695 18.511 0 37.136 6.434 52.035 19.697l70.942 62.589v-164.966c0-43.513 35.217-78.73 78.73-78.73s78.73 35.217 78.73 78.73v164.854l70.547-62.307c32.621-28.727 82.342-25.679 111.182 6.942 28.84 32.677 25.736 82.512-6.829 111.238zM1370.751 488.748h-1199.464v-385.58h694.744v-171.344h-780.36c-47.295 0-85.672 38.321-85.672 85.672v856.832c0 47.295 38.321 85.672 85.672 85.672h1370.751c47.294 0 85.672-38.321 85.672-85.672l-0.79-384.564-170.554-1.016zM1370.751 788.656h-1199.464v-128.508h1199.464v128.508z" />
<glyph unicode="&#xe942;" glyph-name="ic_keyboard" horiz-adv-x="1407" d="M1342.536 960c38.372 0 63.997-25.625 63.997-63.997v-896.006c0-38.416-25.581-63.997-63.997-63.997h-1279.989c-38.416 0-63.997 25.581-63.997 63.997v896.006c0 38.416 25.581 63.997 63.997 63.997h1279.989zM1278.539 832.006h-1151.995v-767.967h1151.951v767.967h0.044zM958.552 287.985c19.208 0 31.999-12.791 31.999-31.999v-95.996c0-19.208-12.791-31.999-31.999-31.999h-512.022c-19.208 0-31.999 12.791-31.999 31.999v95.996c0 19.208 12.791 31.999 31.999 31.999h512.022zM350.534 544.018c19.208 0 31.999-12.791 31.999-31.999v-95.996c0-19.208-12.791-31.999-31.999-31.999h-95.996c-19.208 0-31.999 12.791-31.999 31.999v95.996c0 19.208 12.791 31.999 31.999 31.999h95.996zM548.944 544.018c19.208 0 31.999-12.791 31.999-31.999v-95.996c0-19.208-12.791-31.999-31.999-31.999h-95.996c-19.208 0-31.999 12.791-31.999 31.999v95.996c0 19.208 12.791 31.999 31.999 31.999h95.996zM747.353 544.018c19.208 0 31.999-12.791 31.999-31.999v-95.996c0-19.208-12.791-31.999-31.999-31.999h-95.996c-19.208 0-31.999 12.791-31.999 31.999v95.996c0 19.208 12.791 31.999 31.999 31.999h95.996zM945.718 544.018c19.208 0 31.999-12.791 31.999-31.999v-95.996c0-19.208-12.791-31.999-31.999-31.999h-95.996c-19.208 0-31.999 12.791-31.999 31.999v95.996c0 19.208 12.791 31.999 31.999 31.999h95.996zM1150.544 544.018c19.208 0 31.999-12.791 31.999-31.999v-95.996c0-19.208-12.791-31.999-31.999-31.999h-95.996c-19.208 0-31.999 12.791-31.999 31.999v95.996c0 19.208 12.791 31.999 31.999 31.999h95.996zM350.534 736.010c19.208 0 31.999-12.791 31.999-31.999v-95.996c0-19.208-12.791-31.999-31.999-31.999h-95.996c-19.208 0-31.999 12.791-31.999 31.999v95.996c0 19.208 12.791 31.999 31.999 31.999h95.996zM548.944 736.010c19.208 0 31.999-12.791 31.999-31.999v-95.996c0-19.208-12.791-31.999-31.999-31.999h-95.996c-19.208 0-31.999 12.791-31.999 31.999v95.996c0 19.208 12.791 31.999 31.999 31.999h95.996zM747.353 736.010c19.208 0 31.999-12.791 31.999-31.999v-95.996c0-19.208-12.791-31.999-31.999-31.999h-95.996c-19.208 0-31.999 12.791-31.999 31.999v95.996c0 19.208 12.791 31.999 31.999 31.999h95.996zM945.718 736.010c19.208 0 31.999-12.791 31.999-31.999v-95.996c0-19.208-12.791-31.999-31.999-31.999h-95.996c-19.208 0-31.999 12.791-31.999 31.999v95.996c0 19.208 12.791 31.999 31.999 31.999h95.996zM1150.544 736.010c19.208 0 31.999-12.791 31.999-31.999v-95.996c0-19.208-12.791-31.999-31.999-31.999h-95.996c-19.208 0-31.999 12.791-31.999 31.999v95.996c0 19.208 12.791 31.999 31.999 31.999h95.996z" />
<glyph unicode="&#xe943;" glyph-name="ic_krone" horiz-adv-x="1266" d="M270.633 559.025l337.994 391.037c13.251 13.251 39.752 13.251 53.003 0l337.994-391.037 205.447 258.489c19.896 26.502 59.648 13.251 59.648-19.896v-596.484c0-19.896-13.251-33.147-33.147-33.147h-1192.888c-19.896 0-33.147 13.251-33.147 33.147v596.484c0 33.147 39.752 46.398 59.648 19.896l205.447-258.489zM32.039 68.587h1192.968c19.896 0 33.147-13.251 33.147-33.147v-66.294c0-19.896-13.251-33.147-33.147-33.147h-1192.968c-19.896 0-33.147 13.251-33.147 33.147v66.294c0.040 19.856 19.896 33.147 33.147 33.147z" />
<glyph unicode="&#xe944;" glyph-name="ic_law" horiz-adv-x="1134" d="M6.097 458.226v-20.488c0-102.404 81.916-189.424 189.424-189.424 102.404 0 189.424 87.020 189.424 189.424v20.488h-378.847zM943.006 852.457l117.752-209.911h46.080l-122.856 225.295c10.244 10.244 15.348 25.592 15.348 40.976 0 30.732-25.592 51.184-51.184 51.184-30.732 0-51.184-20.488-51.184-51.184l-255.991-66.568c-15.348 20.488-40.976 35.836-66.568 35.836-40.976 0-76.812-30.732-81.916-71.672v0l-245.783-61.463c-15.348 15.348-30.696 25.592-56.324 25.592-30.732 0-51.184-25.592-51.184-51.184 0-15.348 5.104-30.732 15.348-35.836l-122.891-225.259h46.080l117.752 209.911 117.752-209.911h46.080l-122.856 225.259c5.14 5.104 10.244 10.244 15.384 20.488l250.887 66.568c5.104-10.244 10.244-20.488 20.488-25.592v-650.222h-46.080c-10.244 0-20.488-10.244-20.488-20.488v-20.488h-20.488c-10.244 0-20.488-10.244-20.488-20.488v-76.812c0-10.244 10.244-20.488 20.488-20.488h281.583c10.244 0 20.488 10.244 20.488 20.488v76.812c0 10.244-10.244 20.488-20.488 20.488h-20.488v20.488c0 10.244-10.244 20.488-20.488 20.488h-46.080v650.186c15.348 15.348 25.592 35.836 25.592 56.324v5.104l255.991 66.568 5.104-5.104-122.891-225.259h46.080l102.439 209.876zM1101.733 642.545h-348.151v-20.488c0-102.404 81.916-189.424 189.424-189.424s189.424 87.020 189.424 189.424v20.488c0 0-30.696 0-30.696 0z" />
<glyph unicode="&#xe945;" glyph-name="ic_legitimation" horiz-adv-x="1443" d="M1382.371 960c33.257 0 60.243-26.987 60.243-60.243v-903.513c0-33.257-26.987-60.243-60.243-60.243h-1325.126c-33.256 0-60.243 26.987-60.243 60.243v903.513c0 33.256 26.987 60.243 60.243 60.243 0 0 1325.126 0 1325.126 0zM388.538 338.849c-107.311 0-203.81-45.887-271.049-118.624 1.636-1.772 3.089-3.725 4.77-5.452 19.036-19.809 39.844-37.164 62.151-51.793 60.516-40.208 130.981-61.334 204.128-61.334 73.101 0 143.612 21.126 203.9 61.152 22.489 14.766 43.342 32.166 62.151 51.747 1.817 1.817 3.271 3.816 4.998 5.634-67.285 72.783-163.738 118.669-271.049 118.669zM1171.565 432.939h-331.293c-24.942 0-45.16-20.217-45.16-45.16s20.217-45.16 45.16-45.16v0h331.293c24.942 0 45.16 20.217 45.16 45.16s-20.217 45.16-45.16 45.16v0zM388.538 779.27c-112.263 0-203.31-91.046-203.31-203.31 0-70.511 36.073-132.799 90.683-169.19 32.166-21.535 70.92-34.12 112.627-34.12s80.461 12.585 112.627 34.12c54.61 36.391 90.683 98.679 90.683 169.19-0.045 112.309-91.046 203.31-203.31 203.31zM1261.93 583.547h-421.658c-24.942 0-45.16-20.217-45.16-45.16 0-22.852 16.992-41.752 39.026-44.751l6.133-0.409h421.658c24.942 0 45.16 20.217 45.16 45.16 0 24.897-20.217 45.16-45.16 45.16zM1261.93 734.11h-421.658c-24.942 0-45.16-20.217-45.16-45.16 0-22.852 16.992-41.752 39.026-44.751l6.133-0.409h421.658c24.942 0 45.16 20.217 45.16 45.16s-20.217 45.16-45.16 45.16z" />
<glyph unicode="&#xe946;" glyph-name="ic_limits" horiz-adv-x="957" d="M239.104 445.28c0-41.856-23.904-83.712-59.776-101.632v0-346.752c0-35.872-23.904-59.776-59.776-59.776s-59.776 23.904-59.776 59.776v0 346.752c-35.872 17.92-59.776 59.776-59.776 101.632s23.904 83.712 59.776 101.632v0 346.752c0 35.872 23.904 59.776 59.776 59.776s59.776-23.904 59.776-59.776v0-346.752c35.872-23.936 59.776-59.808 59.776-101.632zM597.824 206.144c0-41.856-17.92-77.728-53.792-95.648l-5.984-5.984v-107.616c0-35.872-23.904-59.776-59.776-59.776-29.888 0-53.792 23.904-59.776 53.792v113.6c-35.872 17.92-59.776 59.776-59.776 101.632s17.92 77.728 53.792 95.648l5.984 5.984v585.888c0 35.872 23.904 59.776 59.776 59.776 29.888 0 53.792-23.904 59.776-53.792v-591.872c35.872-23.936 59.776-59.808 59.776-101.632zM956.512 684.416c0-41.856-17.92-77.728-53.792-95.648l-5.984-5.984v-585.888c0-35.872-23.904-59.776-59.776-59.776-29.888 0-53.792 23.904-59.776 53.792v591.872c-35.872 17.92-59.776 59.776-59.776 101.632s17.92 77.728 53.792 95.648l5.984 5.984v107.616c0 35.872 23.904 59.776 59.776 59.776 29.888 0 59.776-23.904 59.776-53.792v-113.6c35.872-23.936 59.776-59.808 59.776-101.632z" />
<glyph unicode="&#xe947;" glyph-name="ic_location" horiz-adv-x="989" d="M428.464 338.496l-374.656 135.52c-71.744 23.904-71.744 119.584 0 151.456l829.024 326.816c63.776 23.904 119.584-31.872 103.616-95.648l-239.136-860.896c-15.936-71.744-119.584-79.712-151.456-15.936l-167.392 358.688z" />
<glyph unicode="&#xe948;" glyph-name="ic_location_point" horiz-adv-x="850" d="M773.793 778.496c79.744-111.456 98.080-253.792 49.088-378.368-12.224-34.4-34.336-67.616-61.312-98.432l-311.488-353.408c-7.36-7.136-14.72-11.84-25.728-11.84-11.040 0-18.432 4.768-25.728 11.84l-310.24 353.44c-26.976 30.816-47.84 65.216-61.312 98.432-49.088 124.544-30.656 266.848 49.056 378.336 79.744 113.856 207.232 177.92 349.504 177.92 143.392-0.032 270.944-64.064 348.16-177.92zM425.537 358.624c106.688 0 192.544 84.192 192.544 186.208s-87.104 186.208-192.544 186.208-192.544-84.192-192.544-186.208 87.072-186.208 192.544-186.208z" />
<glyph unicode="&#xe949;" glyph-name="ic_lock_open" horiz-adv-x="780" d="M370.401 959.423c82.842 9.75 160.81-29.25 209.56-92.592 19.5-29.25 4.875-68.217-24.375-77.967-19.5-4.875-39 0-53.593 19.5-29.25 39-82.842 63.343-136.467 53.593-73.092-9.75-121.842-77.967-121.842-151.060v0-92.592h487.337c29.25 0 48.75-19.5 48.75-48.75v0-584.804c0-29.25-19.5-48.75-48.75-48.75v0h-682.271c-29.25 0-48.75 19.5-48.75 48.75v0 584.804c0 29.25 19.5 48.75 48.75 48.75v0h97.467v87.685c0 131.592 92.592 243.684 224.184 253.434zM682.303 520.804h-584.804v-487.337h584.804v487.337zM341.152 267.402v-87.717c0-29.25 19.5-48.75 48.75-48.75s48.75 19.5 48.75 48.75v87.717c29.25 14.625 48.75 48.75 48.75 82.842 0 53.593-43.875 97.467-97.467 97.467s-97.467-43.875-97.467-97.467c-0.032-34.125 19.436-63.343 48.685-82.842z" />
<glyph unicode="&#xe94a;" glyph-name="ic_logout" horiz-adv-x="885" d="M287.744 789.728v-97.376c-119.52-57.536-199.2-177.088-199.2-318.752 0-194.784 159.36-354.144 354.144-354.144 154.944 0 283.328 97.376 332.032 234.624 13.28 35.424 22.144 75.264 22.144 119.52 0 39.84-8.864 79.68-22.144 119.52-30.976 88.544-97.376 159.36-177.088 199.2v97.408h4.416c119.52-48.704 212.48-146.080 256.768-265.6 17.696-44.256 26.56-97.376 26.56-146.080 0-53.12-8.864-101.824-26.56-146.080-61.984-172.64-225.76-296.608-416.128-296.608-243.488 0-442.688 199.2-442.688 442.688 0 190.336 119.52 349.696 287.744 411.68zM442.688 953.504c26.56 0 44.256-17.696 44.256-44.256v-442.688c0-26.56-17.696-44.256-44.256-44.256s-44.256 17.696-44.256 44.256v442.688c-0.032 22.144 22.112 44.256 44.256 44.256z" />
<glyph unicode="&#xe94b;" glyph-name="ic_male" horiz-adv-x="882" d="M754.112 147.008c-51.296 15.392-92.352 30.784-117.984 46.176-30.784 15.392-61.568 35.904-82.080 66.688-10.272 15.392-20.512 35.904-20.512 51.296 0 0 0 10.272 20.512 20.512 15.392 10.272 61.568 61.568 56.448 143.648 0 0 0 30.784 20.512 35.904s51.296 56.448 51.296 112.864c0 0 5.12 35.904-20.512 30.784 0 0-15.392 15.392-5.12 30.784 5.12 15.392 51.296 200.064-46.176 210.336 0 0-35.904 71.808-174.432 61.568-138.528 10.272-174.432-61.568-174.432-61.568-97.504-10.24-51.328-194.912-46.208-210.304s-5.12-30.784-5.12-30.784c-25.664 5.12-20.512-30.784-20.512-30.784 0-56.448 30.784-107.744 51.296-112.864s20.512-35.904 20.512-35.904c-5.12-82.080 41.056-133.376 56.448-143.648s20.512-20.512 20.512-20.512c0-15.392-10.272-35.904-20.512-51.296-20.512-30.784-51.296-51.296-82.080-66.688-25.664-10.272-66.688-30.784-117.984-46.176 0 0 0 0-5.12 0-66.688-20.512-112.864-87.2-112.864-159.040v-51.296h882.368v51.296c-10.272 71.808-56.448 138.496-128.256 159.008 5.12 0 5.12 0 0 0z" />
<glyph unicode="&#xe94c;" glyph-name="ic_mehrere_konten" horiz-adv-x="1153" d="M1096.815 48.074c30.674 0 55.707-25.198 55.707-56.037 0-30.88-25.074-56.037-55.707-56.037h-780.11c-30.674 0-55.707 25.157-55.707 56.037 0 30.839 25.075 56.037 55.707 56.037h780.11zM428.161 452.23c30.674 0 55.707-25.157 55.707-56.037v-247.739c0-28.657-21.616-52.414-49.243-55.707l-6.464-0.371c-30.674 0-55.707 25.157-55.707 56.037v247.74c-0.041 30.88 25.074 56.078 55.707 56.078zM706.78 452.23c30.674 0 55.707-25.157 55.707-56.037v-247.739c0-28.657-21.616-52.414-49.243-55.707l-6.464-0.371c-30.674 0-55.707 25.157-55.707 56.037v247.74c-0.041 30.88 25.074 56.078 55.707 56.078zM985.359 452.23c30.674 0 55.707-25.157 55.707-56.037v-247.739c0-28.657-21.616-52.414-49.243-55.707l-6.464-0.371c-30.674 0-55.707 25.157-55.707 56.037v247.74c0 30.88 25.116 56.078 55.707 56.078zM727.985 824.066l6.505-3.129 389.952-219.248c48.296-27.174 31.662-99.351-20.834-104.868l-6.464-0.329h-779.863c-55.378 0-75.882 71.147-32.733 101.739l5.476 3.459 389.952 219.248c14.822 8.358 32.445 9.388 48.008 3.129zM632.174 864.828l-157.899 88.028-6.505 3.129c-15.564 6.258-33.186 5.188-48.008-3.129l-395.428-222.665c-43.108-30.592-22.563-101.739 32.774-101.739h164.94l1.4 0.906 408.727 235.47zM173.463 179.993h-116.973c-30.674 0-55.707-25.198-55.707-56.037 0-30.88 25.075-56.037 55.707-56.037h116.973c30.674 0 55.707 25.157 55.707 56.037 0 30.798-25.033 56.037-55.707 56.037zM174.41 224.666c27.586 3.253 49.243 26.969 49.243 55.707v247.74c0 30.88-25.075 56.037-55.707 56.037s-55.707-25.157-55.707-56.037v-247.74c0-30.88 25.075-56.037 55.707-56.037l6.464 0.329z" />
<glyph unicode="&#xe94d;" glyph-name="ic_miniconnect" horiz-adv-x="791" d="M751.74 959.968c19.671 0 39.342-19.671 39.342-39.342v-944.56c0-35.421-35.421-51.17-62.966-31.499l-334.535 283.365-330.614-283.365c-23.624-19.671-62.966-3.921-62.966 31.499v944.56c0 23.624 15.75 39.342 39.342 39.342 0 0 712.398 0 712.398 0zM708.444 881.252h-629.728v-826.502l291.24 251.898c15.75 11.796 35.421 11.796 47.217 0l291.24-251.898v826.502h0.032z" />
<glyph unicode="&#xe94e;" glyph-name="ic_moneyorder" d="M752.864 959.488c30.848 0 56.288-23.968 59.712-54.752l0.384-7.232v-30.976h150.304c30.848 0 56.288-23.968 59.712-54.752l0.384-7.232v-805.12c0-31.808-23.2-57.92-53.088-61.504l-7.040-0.448h-901.664c-30.784 0-56.224 23.904-59.712 54.688l-0.384 7.296v805.184c0 31.744 23.264 57.92 53.088 61.504l7.040 0.448h150.304v30.912c0 34.176 26.944 61.952 60.096 61.952 30.784 0 56.224-23.968 59.712-54.752l0.384-7.232v-30.976h360.704v31.008c-0.032 34.176 26.848 61.984 60.064 61.984zM903.168 432.96h-781.504v-371.616h781.504c0 0 0 371.616 0 371.616zM211.872 742.688h-90.208v-185.824h781.504v185.824h-90.176v-30.976c0-34.176-26.88-61.952-60.096-61.952s-60.096 27.712-60.096 61.952v0 30.976h-360.736v-30.976c0-34.176-26.944-61.952-60.096-61.952s-60.096 27.712-60.096 61.952v0c0 0 0 30.976 0 30.976z" />
<glyph unicode="&#xe94f;" glyph-name="ic_moneyswift" horiz-adv-x="981" d="M227.221 462.182c23.91 23.91 59.792 23.91 83.703 0s23.91-59.792 0-83.703v0l-113.615-113.615h603.955c35.882 0 59.792-23.91 59.792-59.792s-23.91-59.792-59.792-59.792v0h-597.985l107.645-107.645c23.91-23.91 23.91-59.792 0-83.703s-59.792-23.91-83.703 0v0l-209.288 209.288c-23.91 23.91-23.91 59.792 0 83.703v0l209.288 215.258zM753.443 940.583l209.288-209.288c23.91-23.91 23.91-59.792 0-83.703l-209.288-209.288c-23.91-23.91-59.792-23.91-83.703 0s-23.91 59.792 0 83.703l107.645 107.645h-598.017c-35.882 0-59.792 23.91-59.792 59.792s23.91 59.792 59.792 59.792h603.955l-113.615 107.645c-23.91 23.91-23.91 59.792 0 83.703 23.942 23.91 59.824 23.91 83.735 0z" />
<glyph unicode="&#xe950;" glyph-name="ic_moon" horiz-adv-x="1017" d="M403.971 854.905c-182.014-44.391-319.637-213.092-319.637-408.42 0-230.855 190.88-421.734 421.734-421.734 159.803 0 301.874 88.783 372.894 226.406-53.257-26.628-110.995-39.943-173.117-39.943-217.508 0-395.106 177.566-395.106 395.106 4.449 93.232 39.975 177.566 93.232 248.585zM510.517-64c-279.663 0-510.517 230.855-510.517 510.517s226.406 510.517 510.517 510.517c13.314 0 22.212 0 35.526 0 17.763 0 35.526-13.314 39.943-35.526 4.449-17.763-4.449-39.943-22.212-48.84-97.648-53.257-159.803-155.386-159.803-266.348 0-168.7 137.623-306.323 306.323-306.323 84.334 0 168.7 35.526 226.406 102.097 13.314 13.314 35.526 17.763 53.257 8.865 17.763-8.865 26.628-26.628 26.628-48.84-44.391-248.553-257.483-426.119-506.068-426.119z" />
<glyph unicode="&#xe951;" glyph-name="ic_more" horiz-adv-x="1022" d="M510.378 956.691c283.026 0 510.345-227.352 510.345-510.346s-227.352-510.346-510.345-510.346-510.378 227.32-510.378 510.346 231.978 510.346 510.378 510.346zM510.378 525.214c-41.763 0-78.868-32.479-78.868-78.868s32.479-78.868 78.868-78.868c41.763 0 78.868 32.479 78.868 78.868s-32.479 78.868-78.868 78.868zM278.4 525.214c-41.763 0-78.868-32.479-78.868-78.868s32.479-78.868 78.868-78.868 78.868 32.479 78.868 78.868-32.479 78.868-78.868 78.868zM742.356 525.214c-41.763 0-78.868-32.479-78.868-78.868s32.479-78.868 78.868-78.868 78.868 32.479 78.868 78.868-32.479 78.868-78.868 78.868z" />
<glyph unicode="&#xe952;" glyph-name="ic_nfc" horiz-adv-x="815" d="M678.546 927.808l20.192-36.064c77.312-138.144 116.576-287.936 116.576-445.248 0-155.104-40.32-309.056-116.608-445.248l-20.128-36c-10.528-18.88-30.080-29.504-50.272-29.504-9.504 0-19.104 2.368-27.968 7.296-27.776 15.488-37.728 50.528-22.208 78.24l20.192 36.128c66.752 119.136 101.952 253.6 101.952 389.088 0 137.376-34.304 268.288-101.952 389.024l-20.192 36.064c-15.52 27.776-5.568 62.752 22.144 78.304 27.648 15.488 62.752 5.568 78.272-22.080zM490.002 823.776l20.256-36.064c59.424-106.144 87.52-218.208 85.728-342.56-1.728-120.704-34.752-238.304-95.552-339.968l-21.28-35.552c-10.816-18.016-29.856-27.968-49.408-27.968-10.080 0-20.256 2.656-29.504 8.16-27.264 16.352-36.128 51.68-19.776 78.944l21.28 35.488c50.4 84.352 77.856 182.048 79.232 282.528 1.504 103.488-21.76 196.576-71.104 284.672l-20.192 36.128c-15.52 27.744-5.568 62.784 22.144 78.304 27.68 15.584 62.656 5.632 78.176-22.112zM303.89 724.704l20.064-36.192c39.712-71.904 57.824-152.736 53.792-240.32-3.616-77.568-28.928-156.128-75.296-233.472l-21.344-35.552c-10.752-17.952-29.792-27.904-49.376-27.904-10.080 0-20.256 2.656-29.504 8.224-27.264 16.352-36.128 51.68-19.744 78.944l21.28 35.488c36.416 60.768 56.32 121.216 59.040 179.616 3.040 65.984-10.24 126.272-39.52 179.264l-20.064 36.288c-15.36 27.712-5.312 62.752 22.56 78.112 27.84 15.36 62.752 5.28 78.112-22.496zM116.786 625.408l18.528-32.576c24.288-42.688 35.68-90.848 33.888-143.072-1.6-46.304-16.096-93.248-43.104-139.392l-18.944-32.448c-10.656-18.24-29.92-28.48-49.696-28.48-9.824 0-19.84 2.528-28.928 7.872-27.456 16-36.704 51.2-20.64 78.72l18.88 32.32c17.248 29.568 26.528 58.336 27.456 85.376 1.024 30.656-5.28 58.336-18.944 82.272l-18.464 32.576c-15.712 27.616-6.048 62.72 21.568 78.432 27.616 15.744 62.752 6.016 78.4-21.6z" />
<glyph unicode="&#xe953;" glyph-name="ic_no_connection" horiz-adv-x="1050" d="M943.618 944.895c19.878 20.108 52.057 20.173 71.935 0 19.845-20.108 19.845-52.746 0-72.919v0l-906.946-920.854c-9.939-10.070-22.929-15.056-35.951-15.122-13.022 0-26.045 5.052-35.984 15.122-19.845 20.173-19.845 52.746 0 72.985v0l906.946 920.788zM785.512 560.093l82.989 84.301c0.23-0.426 0.492-0.754 0.722-1.214 9.677-17.024 26.603-53.631 35.557-111.56 76.56-38.575 141.18-110.609 144.789-212.23 5.839-160.304-120.253-232.403-187.726-248.050-2.132-0.558-4.297-0.918-6.429-1.312-4.33-0.722-43.528-7.184-88.697-7.577l-6.856-0.066c-46.448-0.23-255.364-0.262-381.423-0.262h-83.449l108.313 109.92h42.577c122.549 0 274.718 0.098 313.063 0.262l6.757 0.066c37.69 0.328 71.213 6.003 71.213 6.003s106.836 24.962 102.835 137.178-139.081 136.391-139.081 136.391c0 44.84-6.331 78.135-12.957 100.998l-2.198 7.151zM563.606 833.925c41.757 0 90.895-9.611 139.081-31.424l16.007-7.708-82.694-83.973c-31.72 10.497-52.155 12.793-61.668 13.121l-2.788 0.066h-10.070c-211.475-10.562-239.324-198.158-240.472-206.752l-0.066-0.262h-3.641c-27.685-0.328-207.998-8.529-206.752-167.324 0.394-54.451 17.746-92.010 41.167-118.219l5.937-6.331-77.282-78.331c-46.054 45.661-79.020 111.494-79.742 202.028-0.558 73.477 24.569 137.867 72.689 186.414 49.072 49.498 111.954 72.427 163.092 82.989 41.396 96.504 136.785 206.522 320.87 215.641 1.41 0 4.953 0.066 6.331 0.066z" />
<glyph unicode="&#xe954;" glyph-name="ic_notification" horiz-adv-x="793" d="M122.231 184.615l31.017 51.684c32.109 53.58 49.048 114.842 49.048 177.293v87.136c0 107.16 87.168 194.36 194.36 194.36s194.36-87.2 194.36-194.36v-87.168c0-62.387 16.939-123.649 49.048-177.293l31.081-51.684-548.915 0.032zM440.883 71.959c-0.032-20.924-19.831-37.927-44.195-37.927-24.299 0-44.163 16.939-44.163 37.863 0 5.143 1.607 10.092 3.889 14.689h80.611c2.314-4.596 3.857-9.546 3.857-14.624v0zM358.697 829.569c0 17.903 17.067 32.399 37.959 32.399 20.924 0 37.959-14.496 37.959-32.399v-39.213c-12.471 1.607-25.070 2.764-37.959 2.764s-25.488-1.157-37.959-2.764v39.213zM783.866 187.283l-59.719 99.382c-23.013 38.345-35.099 82.25-35.099 126.895v87.168c0 112.11-63.512 209.596-156.433 258.611v70.229c0 71.901-60.941 130.431-135.927 130.431s-135.927-58.53-135.927-130.431v-70.229c-92.954-49.016-156.433-146.502-156.433-258.612v-87.168c0-44.677-12.182-88.55-35.163-126.863l-59.558-99.285c-12.407-20.506-12.857-46.188-0.996-67.080 11.7-20.796 33.877-33.749 57.758-33.749h173.243c-0.611-4.853-1.157-9.739-1.157-14.689 0-74.89 71.001-135.895 158.201-135.895 87.168 0 158.105 61.005 158.265 135.895 0 4.95-0.514 9.835-1.157 14.689h173.147c23.785 0 45.963 12.889 57.823 33.684 11.796 20.86 11.507 46.509-0.868 67.015v0z" />
<glyph unicode="&#xe955;" glyph-name="ic_notification_filled" horiz-adv-x="795" d="M441.528 69.376c-0.032-20.96-19.872-37.984-44.256-37.984-24.352 0-44.224 16.96-44.224 37.92 0 5.152 1.632 10.112 3.904 14.72h80.736c2.304-4.608 3.84-9.536 3.84-14.656v0zM359.224 828.128c0 17.92 17.12 32.448 38.016 32.448 20.96 0 38.016-14.528 38.016-32.448v-39.264c-12.48 1.632-25.12 2.752-38.016 2.752s-25.536-1.152-38.016-2.752c0 0 0 39.264 0 39.264zM785.048 184.896l-59.808 99.552c-23.072 38.4-35.168 82.4-35.168 127.072v87.296c0 112.256-63.616 209.92-156.672 258.976v70.336c0 72-61.056 130.624-136.128 130.624s-136.128-58.624-136.128-130.624v-70.336c-93.088-49.056-156.672-146.72-156.672-258.976v-87.296c0-44.736-12.192-88.672-35.2-127.040l-59.648-99.456c-12.448-20.544-12.864-46.272-0.992-67.2 11.712-20.832 33.92-33.792 57.856-33.792h173.504c-0.608-4.864-1.152-9.76-1.152-14.72 0-75.008 71.104-136.096 158.432-136.096 87.296 0 158.336 61.088 158.496 136.096 0 4.96-0.512 9.856-1.152 14.72h173.408c23.84 0 46.016 12.928 57.888 33.728 11.808 20.896 11.52 46.592-0.864 67.136v0z" />
<glyph unicode="&#xe956;" glyph-name="ic_number" horiz-adv-x="941" d="M50.080 223.84c-30.272 0-50.080 19.296-50.080 48.48 0 36.512 24.512 61.536 61.536 61.536h150.752l49.568 247.808h-142.4c-30.272 0-50.080 19.808-50.080 49.024 0 36.512 24.512 62.080 61.536 62.080h153.376l42.816 212.832c6.24 32.896 24.512 51.648 60.544 51.648 30.816 0 52.16-18.272 52.16-48.48 0-7.296-1.056-15.68-2.080-19.808l-39.104-196.16h225.888l42.784 212.8c6.752 32.352 24.512 51.648 60 51.648 31.264 0 52.704-18.272 52.704-48.48 0-7.296-1.056-15.68-2.080-19.808l-39.104-196.16h151.808c30.272 0 50.080-21.376 50.080-50.080 0-35.968-24.512-61.024-62.080-61.024h-162.208l-50.080-247.808h154.912c30.272 0 50.080-20.896 50.080-49.568 0-35.968-24.512-60.544-61.536-60.544h-165.536l-47.488-237.344c-6.752-33.408-28.672-50.080-61.024-50.080-31.264 0-51.648 17.216-51.648 48 0 5.76 0.544 14.080 2.080 19.808l43.808 219.616h-225.824l-47.456-237.344c-6.752-33.408-28.672-50.080-61.024-50.080-31.264 0-51.648 17.216-51.648 48 0 5.76 0.544 14.080 2.080 19.808l43.808 219.616h-139.84c0 0 0 0.064 0 0.064zM326.56 333.888h225.888l49.568 247.808h-225.888l-49.568-247.808z" />
<glyph unicode="&#xe957;" glyph-name="ic_oneway" horiz-adv-x="1641" d="M1206.562 925.849l398.205-398.206c45.527-45.527 45.527-113.766 0-159.292l-398.205-398.205c-45.527-45.527-113.766-45.527-159.292 0s-45.527 113.766 0 159.292l204.819 204.819h-1137.759c-68.29 0-113.766 45.527-113.766 113.766s45.527 113.766 113.766 113.766h1149.141l-216.15 204.819c-45.527 45.527-45.527 113.766 0 159.292 45.476 45.476 125.096 45.476 159.241-0.051z" />
<glyph unicode="&#xe958;" glyph-name="ic_online_banking" horiz-adv-x="849" d="M761.656-66.237h-673.829c-48.406 0-87.827 39.421-87.827 87.827v850.583c0 48.406 39.421 87.827 87.827 87.827h673.829c48.406 0 87.827-39.421 87.827-87.827v-850.62c0-48.406-39.421-87.79-87.827-87.79zM140.45 74.286h568.437v745.191h-568.437v-745.191zM196.043 728.57h457.47v-83.060h-457.47v83.060zM292.854 426.914h-92.668c-2.164 0-3.924 1.76-3.924 3.924v64.138c0 2.164 1.76 3.924 3.924 3.924h92.668c2.164 0 3.924-1.76 3.924-3.924v-64.138c0-2.164-1.724-3.924-3.924-3.924zM292.854 498.936h-92.668c-2.164 0-3.924-1.76-3.924-3.924v-64.138c0-2.164 1.76-3.924 3.924-3.924h92.668c2.164 0 3.924 1.76 3.924 3.924v64.138c0 2.164-1.724 3.924-3.924 3.924v0zM470.892 426.914h-92.668c-2.164 0-3.924 1.76-3.924 3.924v64.138c0 2.164 1.76 3.924 3.924 3.924h92.668c2.164 0 3.924-1.76 3.924-3.924v-64.138c0.037-2.164-1.724-3.924-3.924-3.924zM470.892 498.936h-92.668c-2.164 0-3.924-1.76-3.924-3.924v-64.138c0-2.164 1.76-3.924 3.924-3.924h92.668c2.164 0 3.924 1.76 3.924 3.924v64.138c0.037 2.164-1.724 3.924-3.924 3.924v0zM649.589 426.437h-92.668c-2.164 0-3.924 1.76-3.924 3.924v64.138c0 2.164 1.76 3.924 3.924 3.924h92.668c2.164 0 3.924-1.76 3.924-3.924v-64.138c0.073-2.090-1.76-3.924-3.924-3.924zM649.589 498.533h-92.668c-2.164 0-3.924-1.76-3.924-3.924v-64.138c0-2.164 1.76-3.924 3.924-3.924h92.668c2.164 0 3.924 1.76 3.924 3.924v64.138c0.073 2.164-1.76 3.924-3.924 3.924v0zM292.524 272.896h-92.704c-2.164 0-3.924 1.76-3.924 3.924v64.211c0 2.164 1.76 3.924 3.924 3.924h92.668c2.164 0 3.924-1.76 3.924-3.924v-64.138c0.037-2.164-1.724-3.997-3.887-3.997zM292.524 344.991h-92.704c-2.164 0-3.924-1.76-3.924-3.924v-64.138c0-2.164 1.76-3.924 3.924-3.924h92.668c2.164 0 3.924 1.76 3.924 3.924v64.138c0.037 2.164-1.724 3.924-3.887 3.924v0zM470.562 272.896h-92.741c-2.164 0-3.924 1.76-3.924 3.924v64.211c0 2.164 1.76 3.924 3.924 3.924h92.668c2.164 0 3.924-1.76 3.924-3.924v-64.138c0.073-2.164-1.687-3.997-3.85-3.997zM470.562 344.991h-92.741c-2.164 0-3.924-1.76-3.924-3.924v-64.138c0-2.164 1.76-3.924 3.924-3.924h92.668c2.164 0 3.924 1.76 3.924 3.924v64.138c0.073 2.164-1.687 3.924-3.85 3.924v0zM649.223 272.493h-92.668c-2.164 0-3.924 1.76-3.924 3.924v64.138c0 2.164 1.76 3.924 3.924 3.924h92.668c2.164 0 3.924-1.76 3.924-3.924v-64.138c0.037-2.164-1.724-3.924-3.924-3.924zM649.223 344.588h-92.668c-2.164 0-3.924-1.76-3.924-3.924v-64.138c0-2.164 1.76-3.924 3.924-3.924h92.668c2.164 0 3.924 1.76 3.924 3.924v64.138c0.037 2.090-1.724 3.924-3.924 3.924v0zM292.524 118.548h-92.704c-2.164 0-3.924 1.76-3.924 3.924v64.138c0 2.164 1.76 3.924 3.924 3.924h92.668c2.164 0 3.924-1.76 3.924-3.924v-64.138c0.037-2.164-1.724-3.924-3.887-3.924zM292.524 190.57h-92.704c-2.164 0-3.924-1.76-3.924-3.924v-64.138c0-2.164 1.76-3.924 3.924-3.924h92.668c2.164 0 3.924 1.76 3.924 3.924v64.138c0.037 2.164-1.724 3.924-3.887 3.924v0zM470.562 118.548h-92.741c-2.164 0-3.924 1.76-3.924 3.924v64.138c0 2.164 1.76 3.924 3.924 3.924h92.668c2.164 0 3.924-1.76 3.924-3.924v-64.138c0.073-2.164-1.687-3.924-3.85-3.924zM470.562 190.57h-92.741c-2.164 0-3.924-1.76-3.924-3.924v-64.138c0-2.164 1.76-3.924 3.924-3.924h92.668c2.164 0 3.924 1.76 3.924 3.924v64.138c0.073 2.164-1.687 3.924-3.85 3.924v0zM649.223 118.035h-92.668c-2.164 0-3.924 1.76-3.924 3.924v64.138c0 2.164 1.76 3.924 3.924 3.924h92.668c2.164 0 3.924-1.76 3.924-3.924v-64.138c0.037-2.164-1.724-3.924-3.924-3.924zM649.223 190.13h-92.668c-2.164 0-3.924-1.76-3.924-3.924v-64.138c0-2.164 1.76-3.924 3.924-3.924h92.668c2.164 0 3.924 1.76 3.924 3.924v64.138c0.037 2.164-1.724 3.924-3.924 3.924v0z" />
<glyph unicode="&#xe959;" glyph-name="ic_overview" horiz-adv-x="794" d="M102.374 38.406h588.821v819.187h-588.821v-819.187zM732.145-64h-670.72c-35.839 0-61.425 25.586-61.425 61.425v901.151c0 30.728 25.586 61.425 61.425 61.425h670.72c35.839 0 61.457-25.586 61.457-61.425v-901.119c-0.032-35.871-30.728-61.457-61.456-61.457v0zM532.475 320.008c30.728 0 56.314-20.475 56.314-51.203s-25.586-51.203-56.314-51.203h-276.491c-30.728 0-56.314 20.475-56.314 51.203s25.586 51.203 56.314 51.203h276.491zM532.475 509.457c30.728 0 56.314-20.475 56.314-51.203s-25.586-51.203-56.314-51.203h-276.491c-30.728 0-56.314 20.475-56.314 51.203s25.586 51.203 56.314 51.203c0 0 276.491 0 276.491 0zM532.475 704.016c30.728 0 56.314-20.475 56.314-51.203s-25.586-51.203-56.314-51.203h-276.491c-30.728 0-56.314 20.475-56.314 51.203s25.586 51.203 56.314 51.203h276.491z" />
<glyph unicode="&#xe95a;" glyph-name="ic_passport" horiz-adv-x="851" d="M749.472 953.824h-648.288c-55.872 0-101.184-45.28-101.184-101.184v-815.744c0-55.872 45.28-101.216 101.184-101.216h648.224c26.848 0 52.544 10.624 71.52 29.664 19.008 18.976 29.696 44.736 29.696 71.52v815.776c0 26.848-10.624 52.544-29.664 71.52-18.944 19.040-44.704 29.664-71.488 29.664zM749.472 852.64v-815.808h-648.288c0 0 0 0 0 0.064v815.744h648.288zM610.496 213.216c25.568 0 46.272-20.704 46.272-46.272s-20.704-46.368-46.272-46.368h-370.432c-25.568 0-46.304 20.8-46.304 46.368s20.768 46.272 46.304 46.272h370.432zM425.248 768.928c127.872 0 231.52-103.68 231.52-231.52s-103.68-231.52-231.52-231.52-231.488 103.68-231.488 231.52 103.616 231.52 231.488 231.52zM469.728 444.8h-88.896c9.728-33.376 25.472-63.904 44.416-92.64 19.456 28.736 34.752 59.264 44.48 92.64v0zM585.472 444.8h-67.584c-8.32-29.184-18.976-56.544-32.928-82.464 42.624 14.848 79.168 44.032 100.512 82.464v0zM332.672 444.8h-67.584c21.28-38.432 57.408-67.648 100-82.464-13.92 25.92-24.096 53.28-32.416 82.464v0zM604.416 583.712h-78.208c1.856-15.296 3.232-30.56 3.232-46.304s-1.376-31.040-3.232-46.304v0h78.208c3.744 14.816 6.048 30.112 6.048 46.304s-2.304 31.456-6.048 46.304v0zM479.424 583.712h-108.384c-2.304-14.816-3.68-30.56-3.68-46.304s1.376-31.040 3.68-46.304v0h108.384c1.856 15.296 3.68 30.56 3.68 46.304 0 15.712-1.824 31.456-3.68 46.304v0zM324.32 583.712h-78.272c-3.68-14.816-6.048-30.112-6.048-46.304s2.336-31.488 6.048-46.304v0h78.272c-1.856 15.296-3.264 30.56-3.264 46.304 0 15.712 1.44 31.008 3.264 46.304v0zM365.056 712.416c-42.592-14.368-78.72-44.032-100-82.464v0h67.584c8.352 28.736 18.528 56.512 32.416 82.464zM425.248 722.592c-18.976-28.736-34.72-59.776-44.416-92.64v0h88.896c-9.728 32.896-25.024 63.904-44.48 92.64zM484.96 712.416c13.952-25.984 24.576-53.728 32.928-82.464v0h67.584c-21.344 38.464-57.888 67.648-100.512 82.464z" />
</font>
</defs>
</svg>
